Welcome Guest ( Log In | Register )

> Releases Upload / Добавление релизов

Добавить релиз тут / Click here to add release
Рекомендованные обменники / Recommended file shares

> Extinction - Fatality [ep] (2020), Death Metal
post Aug 2 2020, 08:29:38
Post #1

Подвал
**************
Group: Металариец
Posts: 14,972
Releases: 8484
From: Far East (Khabarovsk)
On Forums: 11 years 6 months
Thanks: 88759 time(s)
Russian Federation


(IMG:http://metalarea.org/images/audiocovers/2020_Aug/acov_tid340335_thumb.jpg)

*Artist: Extinction
*Album: Fatality [ep]
*Year: 2020
*Genre: Death Metal
*Country: Russian Federation (IMG:http://metalarea.org/forum/style_images/flags/Russian%20Federation.png)
*Format: mp3@CBR320kbps
*Size: 38MB

Tracklist:
1. Carrion 02:46
2. Food For Maggots 02:37
3. Life Inside The Tomb 03:51
4. Extinction 03:55
5. Worker Of Morgue 03:07
******************************
Total playing time: 16:16



Extended info
Reunion of Kostroma's band.
Old trax (circa 1992-1994) were completely rerecorded by:
Konstantin Kamenschikov - Drums;
Alexander Kukin - Guitars;
Dmitry Zuev - Vocals.


Technical info
(IMG:http://metalarea.org/images/spectrogram/2020_Aug/0313b8785aad06cf6138b6599f49611d.png)
Input File: 01-Carrion.mp3
Channels : 2
Sample Rate : 44100
Precision : 16-bit
Duration : 00:02:46.46 = 7341062 samples = 12484.8 CDDA sectors
File Size : 6.66M
Bit Rate : 320k
Sample Encoding: MPEG audio (layer I, II or III)
Comments :
Title=Carrion
Artist=Extinction
Album=Fatality
Tracknumber=01
Year=2020
Genre=Death Metal



Register


Go to the top of the page
  Insert nick Quick quote
+Quote Post
 
Start new topic
Replies (1 - 1)
post Aug 2 2020, 21:21:14
Post #2

Литр
*
Group: Подсевший
Posts: 92
Releases: 0
On Forums: 3 months 4 weeks
Thanks: 59 time(s)
Unknown


(IMG:style_emoticons/default/25.gif) ...Доставило




в пункт назначениЯ


Thanks:
Go to the top of the page
  Insert nick Quick quote
+Quote Post

Reply to this topicStart new topic
1 User(s) are reading this topic (1 Guests and 0 Anonymous Users)
0 Members:

 



- Lo-Fi Version Support form
Copyrights and abuse reports form
Time is now: 11th August 2020 - 16:16:30