Welcome Guest ( Log In | Register )

 
Reply to this topicStart new topic
> Extinction - 1989 Demo [demo] (1989), Thrash/Heavy Metal
post Aug 2 2020, 09:06:57
Post #1

Подвал
**************
Group: Металариец
Posts: 14,917
Releases: 8457
From: Far East (Khabarovsk)
On Forums: 11 years 6 months
Thanks: 88529 time(s)
Russian Federation


(IMG:http://metalarea.org/images/audiocovers/2020_Aug/acov_tid340336_thumb.jpg)

*Artist: Extinction
*Album: 1989 Demo [demo]
*Year: 1989
*Genre: Thrash/Heavy Metal
*Country: United States (IMG:http://metalarea.org/forum/style_images/flags/United%20States.png)
*Format: mp3@CBR192kbps
*Size: 18MB

Tracklist:
1. Transition 03:46
2. Ain't Love Grand (Instrumental) 04:03
3. Smash This Warped Machine 05:02
******************************
Total playing time: 12:51




Extended info
pre-Transition (San Francisco, California).


Technical info
(IMG:http://metalarea.org/images/spectrogram/2020_Aug/3869c0956a2f7d3bc5762e3d690b2dcb.png)
Input File: 01-Transition.mp3
Channels : 2
Sample Rate : 44100
Precision : 16-bit
Duration : 00:03:46.78 = 10001042 samples = 17008.6 CDDA sectors
File Size : 5.44M
Bit Rate : 192k
Sample Encoding: MPEG audio (layer I, II or III)
Comments :
Title=Transition
Artist=Extinction (US, CA)
Album=1989 Demo
Tracknumber=01
Year=1989
Genre=Thrash Metal



Register


Go to the top of the page
  Insert nick Quick quote
+Quote Post

Reply to this topicStart new topic
1 User(s) are reading this topic (1 Guests and 0 Anonymous Users)
0 Members:

 



- Lo-Fi Version Support form
Copyrights and abuse reports form
Time is now: 5th August 2020 - 11:57:33