Welcome Guest ( Log In | Register )

 
Reply to this topicStart new topic
> Evil One - Evil One [demo] (1990), Heavy Metal
post Aug 2 2020, 09:31:32
Post #1

Подвал
**************
Group: Металариец
Posts: 15,139
Releases: 8581
From: Far East (Khabarovsk)
On Forums: 11 years 7 months
Thanks: 90407 time(s)
Russian Federation


(IMG:http://metalarea.org/images/audiocovers/2020_Aug/acov_tid340338_thumb.jpg)

*Artist: Evil One
*Album: Evil One [demo]
*Year: 1990
*Genre: Heavy Metal
*Country: Italy (IMG:http://metalarea.org/forum/style_images/flags/Italy.png)
*Format: mp3@CBR320kbps
*Size: 37MB

Tracklist:
1. Tell Me Lord 07:47
2. Mirror 04:14
3. The Last Century 06:07
******************************
Total playing time: 18:08

Technical info
(IMG:http://metalarea.org/images/spectrogram/2020_Aug/4bbdb33e0d080da71ab9deaa0c322536.png)
Input File: 02-Mirror.mp3
Channels : 2
Sample Rate : 44100
Precision : 16-bit
Duration : 00:04:14.20 = 11210220 samples = 19065 CDDA sectors
File Size : 10.2M
Bit Rate : 320k
Sample Encoding: MPEG audio (layer I, II or III)
Comments :
Title=Mirror
Artist=Evil One
Album=Evil One
Tracknumber=02
Year=1990
Genre=Metal



Register


Go to the top of the page
  Insert nick Quick quote
+Quote Post

Reply to this topicStart new topic
1 User(s) are reading this topic (1 Guests and 0 Anonymous Users)
0 Members:

 



- Lo-Fi Version Support form
Copyrights and abuse reports form
Time is now: 22nd September 2020 - 07:54:59