Welcome Guest ( Log In | Register )

 
Reply to this topicStart new topic
> Badrace - The Smokin' Gun [demo] (1989), Heavy Metal
post Aug 2 2020, 11:38:40
Post #1

Подвал
**************
Group: Металариец
Posts: 14,972
Releases: 8484
From: Far East (Khabarovsk)
On Forums: 11 years 6 months
Thanks: 88772 time(s)
Russian Federation


(IMG:http://metalarea.org/images/audiocovers/2020_Aug/acov_tid340339_thumb.jpg)

*Artist: Badrace
*Album: The Smokin' Gun [demo]
*Year: 1989
*Genre: Heavy Metal
*Country: Italy (IMG:http://metalarea.org/forum/style_images/flags/Italy.png)
*Format: mp3@CBR320kbps
*Size: 58MB

Tracklist:
1. Jump And Raze 05:48
2. Smokin' Gun 05:21
3. Living Without You 04:50
4. Looking Through The Cross 06:37
5. No Exit 06:35
******************************
Total playing time: 29:11

Technical info
(IMG:http://metalarea.org/images/spectrogram/2020_Aug/2039fefd71194c201a6cd2667bf9c442.png)
Input File: 01-Jump And Raze.mp3
Channels : 2
Sample Rate : 44100
Precision : 16-bit
Duration : 00:05:48.40 = 15364352 samples = 26129.9 CDDA sectors
File Size : 13.9M
Bit Rate : 320k
Sample Encoding: MPEG audio (layer I, II or III)
Comments :
Title=Jump And Raze
Artist=Badrace
Album=The Smoking Gun (Demo)
Tracknumber=01
Year=1989
Genre=Heavy Metal



Register


Go to the top of the page
  Insert nick Quick quote
+Quote Post

Reply to this topicStart new topic
1 User(s) are reading this topic (1 Guests and 0 Anonymous Users)
0 Members:

 



- Lo-Fi Version Support form
Copyrights and abuse reports form
Time is now: 11th August 2020 - 16:41:15