Welcome Guest ( Log In | Register )

> Howie Bentley - Beyond The Shade Gates [demo] (1993), Progressive Power Metal
post Aug 2 2020, 12:45:30
Post #1

Подвал
**************
Group: Металариец
Posts: 14,972
Releases: 8484
From: Far East (Khabarovsk)
On Forums: 11 years 6 months
Thanks: 88773 time(s)
Russian Federation


(IMG:http://metalarea.org/images/audiocovers/2020_Aug/acov_tid340340_thumb.jpg)

*Artist: Howie Bentley
*Album: Beyond The Shade Gates [demo]
*Year: 1993
*Genre: Progressive Power Metal
*Country: United States (IMG:http://metalarea.org/forum/style_images/flags/United%20States.png)
*Format: mp3@CBR128kbps (IMG:http://metalarea.org/images/bit_low.gif)
*Size: 22MB

Tracklist:
1. Dreaming With The Incubus 05:45
2. Wicker Man 04:31
3. Unleashing Wrath 05:01
4. On Broken Wings Of Sorrow 08:44
******************************
Total playing time: 24:01

Extended info
Band from Atlanta, Georgia.


Technical info
(IMG:http://metalarea.org/images/spectrogram/2020_Aug/82bb88a4a7310814bdd1b620e74bae78.png)
Input File: 01-Dreaming With The Incubus.mp3
Channels : 2
Sample Rate : 44100
Precision : 16-bit
Duration : 00:05:48.15 = 15353327 samples = 26111.1 CDDA sectors
File Size : 5.57M
Bit Rate : 128k
Sample Encoding: MPEG audio (layer I, II or III)
Comments :
Title=Dreaming With The Incubus
Artist=Howie Bentley
Album=Beyond the Shade Gates
Tracknumber=01
Year=1993
Genre=Metal



Register


Go to the top of the page
  Insert nick Quick quote
+Quote Post
 
Start new topic
Replies (1 - 1)
post Aug 2 2020, 16:24:44
Post #2

Четыре Литра
****
Group: Металариец
Posts: 368
Releases: 0
From: Сибирь
On Forums: 9 years 5 months
Thanks: 119 time(s)
Russian Federation


Cauldron Born - God Of Metal [best of/compilation] (1998)
Go to the top of the page
  Insert nick Quick quote
+Quote Post

Reply to this topicStart new topic
1 User(s) are reading this topic (1 Guests and 0 Anonymous Users)
0 Members:

 



- Lo-Fi Version Support form
Copyrights and abuse reports form
Time is now: 11th August 2020 - 16:59:53