Welcome Guest ( Log In | Register )

> Vassafor - To The Death (2020), Black/Death Metal
post Aug 6 2020, 11:36:21
Post #1

Правь статус, ####!111
**************
Group: Металариец
Posts: 24,055
Releases: 16923
From: Г.Харьков
On Forums: 8 years 6 months
Thanks: 322987 time(s)
Unknown


(IMG:https://metalarea.org/images/audiocovers/2020_Aug/acov_tid340432_thumb.jpg)

*Artist: Vassafor
*Album: To The Death
*Year: 2020
*Genre: Black/Death Metal
*Country: New Zealand (IMG:https://metalarea.org/forum/style_images/flags/New%20Zealand.png)
*Format: mp3@CBR320kbps
*Size: 145MB

Tracklist:
1. To the Death 12:03
2. Egregore Rising 07:36
3. Eyrie 10:35
4. Black Talon 02:13
5. The Burning Ìthyr 09:17
6. Emanation from the Abyss 06:13
7. Singularity 17:36
******************************
Total playing time: 1:05:33




Extended info
VK Guitars, Vocals, Bass (1994-1997, 2004-present)
See also: Sinistrous Diabolus, Temple Nightside, Terror Oath, Blasphemy (live), ex-Diocletian, ex-Irkallian Oracle, ex-Ulcerate, ex-Pseudogod (live), ex-Graymalkin, ex-Canis, ex-Spine (Nzl), ex-The Chills (live)
BP Drums (2009-present)
See also: Malevolence


Technical info
(IMG:https://metalarea.org/images/spectrogram/2020_Aug/6f9f10fbefd5e0d7b8ab213157db43e1.png)
Input File: 05. The Burning бthyr.mp3
Channels : 2
Sample Rate : 44100
Precision : 16-bit
Duration : 00:09:17.41 = 24581693 samples = 41805.6 CDDA sectors
File Size : 22.4M
Bit Rate : 321k
Sample Encoding: MPEG audio (layer I, II or III)
Comments :
Title=The Burning íthyr
Artist=Vassafor
Album=To the Death
Tracknumber=5
Year=2020
Genre=Black Metal



Register


Go to the top of the page
  Insert nick Quick quote
+Quote Post
 
Start new topic
Replies (1 - 9)
post Aug 6 2020, 13:08:10
Post #2

Восемь Литров
********
Group: Металариец
Posts: 819
Releases: 0
On Forums: 13 years 1 month
Thanks: 363 time(s)
Poland


записываю в лучшие альбомы года


Thanks:
Go to the top of the page
  Insert nick Quick quote
+Quote Post
post Aug 6 2020, 15:38:17
Post #3

Правь статус, ####!111
**************
Group: Металариец
Posts: 24,055
Releases: 16923
From: Г.Харьков
On Forums: 8 years 6 months
Thanks: 322987 time(s)
Unknown


FLAC (Tracks) 417 mb
Register


Go to the top of the page
  Insert nick Quick quote
+Quote Post
post Aug 6 2020, 20:04:43
Post #4

Absorbence
***********
Group: Металариец
Posts: 1,750
Releases: 216
From: Vastland Abyss of Cthulhu
On Forums: 14 years 3 weeks
Thanks: 3874 time(s)
Canada


yeeeess, love it (IMG:style_emoticons/default/spitggis0.gif) (IMG:style_emoticons/default/spitggis0.gif) (IMG:style_emoticons/default/spitggis0.gif)
Go to the top of the page
  Insert nick Quick quote
+Quote Post
post Aug 6 2020, 20:35:07
Post #5

melofags sniper
**************
Group: Металариец
Posts: 5,854
Releases: 0
On Forums: 12 years 9 months
Thanks: 5897 time(s)
Unknown


Very good black death metal. Maybe slightly overhyped, but very good.


Go to the top of the page
  Insert nick Quick quote
+Quote Post
post Aug 6 2020, 21:06:58
Post #6

Only Death is Real
**********
Group: Металариец
Posts: 1,442
Releases: 0
From: R'lyeh
On Forums: 3 years 11 months
Thanks: 1777 time(s)
Poland


Very good. (IMG:style_emoticons/default/9.gif)


Go to the top of the page
  Insert nick Quick quote
+Quote Post
post Aug 7 2020, 08:56:46
Post #7

Trickster
Group Icon
Group: Moderation team
Posts: 4,403
Releases: 318
On Forums: 9 years 9 months
Thanks: 12900 time(s)
Russian Federation


Awesome stuff. Iron Bonehead rock this week.
Go to the top of the page
  Insert nick Quick quote
+Quote Post
post Sep 14 2020, 23:41:14
Post #8

Правь статус, ####!111
**************
Group: Металариец
Posts: 4,172
Releases: 17
From: Москва и МО
On Forums: 14 years 5 months
Thanks: 1337 time(s)
Russian Federation


Сколько ни слушал, так и не проникся. Плюс еще и весьма затянуто все это.
Go to the top of the page
  Insert nick Quick quote
+Quote Post
post Sep 15 2020, 03:52:24
Post #9

Ледоруб
**************
Group: Металариец
Posts: 27,062
Releases: 0
From: Санкт-Петербург
On Forums: 11 years 2 months
Thanks: 9693 time(s)
Russian Federation


ЦИТАТА(Daale @ 7th August 2020 - 10:56:46) *
Awesome stuff. Iron Bonehead rock this week.

Ты мог по-русски написать, а не уподобляться.
Go to the top of the page
  Insert nick Quick quote
+Quote Post
post Sep 15 2020, 05:52:13
Post #10

Trickster
Group Icon
Group: Moderation team
Posts: 4,403
Releases: 318
On Forums: 9 years 9 months
Thanks: 12900 time(s)
Russian Federation


6666666, (IMG:style_emoticons/default/6.gif) Ладно
Go to the top of the page
  Insert nick Quick quote
+Quote Post

Reply to this topicStart new topic
1 User(s) are reading this topic (1 Guests and 0 Anonymous Users)
0 Members:

 



- Lo-Fi Version Support form
Copyrights and abuse reports form
Time is now: 4th December 2020 - 16:10:33