Welcome Guest ( Log In | Register )

> Sargeras - Return Of The Dancing Whores (2020), Black Metal (D4)
post Aug 7 2020, 19:23:10
Post #1

Правь статус, ####!111
**************
Group: Металариец
Posts: 3,316
Releases: 2992
From: Одесса
On Forums: 12 years 5 months
Thanks: 30380 time(s)
Ukraine


(IMG:http://metalarea.org/images/audiocovers/2020_Aug/acov_tid340501_thumb.jpg)

*Artist: Sargeras
*Album: Return Of The Dancing Whores
*Year: 2020
*Genre: Black Metal
*Country: Germany (IMG:http://metalarea.org/forum/style_images/flags/Germany.png)
*Format: mp3@CBR320kbps
*Size: 96MB

Tracklist:
1. 60000
2. Salem
3. Sabbath
4. Return of the Dancing Whores
5. Satans Terror
6. Pestilence (Revolt of the Slaves of God)
******************************
Total playing time: 40:03



Extended info
Line - up:

VVytcher - Guitars (rhythm) Vocals
M. Ghul - Guitars, Vocals
Irasyati Carnage - Drums (Odalwolf)

(IMG:https://www.metal-archives.com/images/3/5/4/0/3540409605_photo.jpg?3045)


Technical info
(IMG:http://metalarea.org/images/spectrogram/2020_Aug/0df9c55bb46fe7217f4015cbaa3dbcda.png)
Input File: 01. 60.000.mp3
Channels : 2
Sample Rate : 44100
Precision : 16-bit
Duration : 00:06:27.60 = 17093292 samples = 29070.2 CDDA sectors
File Size : 15.5M
Bit Rate : 320k
Sample Encoding: MPEG audio (layer I, II or III)
Comments :
Title=60.000
Artist=Sargeras
Album=Return Of The Dancing Whores
Tracknumber=1
Year=2020
Genre=138



Register


Go to the top of the page
  Insert nick Quick quote
+Quote Post
 
Start new topic
Replies (1 - 1)
post Nov 21 2020, 21:17:23
Post #2

Правь статус, ####!111
**************
Group: Металариец
Posts: 4,759
Releases: 1449
From: Brazil
On Forums: 8 years 9 months
Thanks: 52809 time(s)
Brazil


Register

mp3@CBR320kbps


Go to the top of the page
  Insert nick Quick quote
+Quote Post

Reply to this topicStart new topic
2 User(s) are reading this topic (2 Guests and 0 Anonymous Users)
0 Members:

 



- Lo-Fi Version Support form
Copyrights and abuse reports form
Time is now: 25th November 2020 - 10:03:15