Welcome Guest ( Log In | Register )

> Releases Upload / Добавление релизов

Добавить релиз тут / Click here to add release
Рекомендованные обменники / Recommended file shares

> Toxik - There Stood The Fence/Out On The Tiles [single] (1989), Technical Thrash Metal (D7)
post Aug 8 2020, 05:37:18
Post #1

Подвал
**************
Group: Металариец
Posts: 15,129
Releases: 8577
From: Far East (Khabarovsk)
On Forums: 11 years 7 months
Thanks: 90340 time(s)
Russian Federation


(IMG:http://metalarea.org/images/audiocovers/2020_Aug/acov_tid340523_thumb.jpg)

*Artist: Toxik
*Album: There Stood The Fence/Out On The Tiles [single]
*Year: 1989
*Genre: Technical Thrash Metal
*Country: United States (IMG:http://metalarea.org/forum/style_images/flags/United%20States.png)
*Format: mp3@CBR320kbps
*Size: 17MB

Tracklist:
1. There Stood The Fence 04:41
2. Out On The Tiles (Led Zeppelin cover) 03:10
******************************
Total playing time: 7:51





Extended info
Famous band from Westchester, New York.


Technical info
(IMG:http://metalarea.org/images/spectrogram/2020_Aug/67b976d4a0f10f63830ca09a699829fd.png)
Input File: 01-There Stood The Fence.mp3
Channels : 2
Sample Rate : 44100
Precision : 16-bit
Duration : 00:04:43.29 = 12493089 samples = 21246.8 CDDA sectors
File Size : 11.4M
Bit Rate : 322k
Sample Encoding: MPEG audio (layer I, II or III)
Comments :
Title=There Stood The Fence
Artist=Toxik
Album=There Stood The Fence (single)
Tracknumber=01
Year=1989
Genre=Thrash Metal



Register


Go to the top of the page
  Insert nick Quick quote
+Quote Post
 
Start new topic
Replies (1 - 1)
post Aug 13 2020, 08:33:59
Post #2

Четыре Литра
****
Group: Металариец
Posts: 302
Releases: 0
On Forums: 2 years 8 months
Thanks: 54 time(s)
Unknown


Thanks for this!
Go to the top of the page
  Insert nick Quick quote
+Quote Post

Reply to this topicStart new topic
1 User(s) are reading this topic (1 Guests and 0 Anonymous Users)
0 Members:

 



- Lo-Fi Version Support form
Copyrights and abuse reports form
Time is now: 18th September 2020 - 08:07:42