Welcome Guest ( Log In | Register )

> Suicide Emotions - 2020 (2020), Depressive/Post-Black Metal (D4)
post Aug 8 2020, 06:56:15
Post #1

Три Литра
***
Group: Завсегдатай
Posts: 290
Releases: 106
On Forums: 11 years 9 months
Thanks: 4133 time(s)
Unknown


(IMG:http://metalarea.org/images/audiocovers/2020_Aug/acov_tid340527_thumb.jpg)

*Artist: Suicide Emotions
*Album: 2020
*Year: 2020
*Genre: Depressive/Post-Black Metal
*Country: Italy (IMG:http://metalarea.org/forum/style_images/flags/Italy.png)
*Format: mp3@CBR320kbps
*Size: 111MB

Tracklist:
1. A New Dawn 09:54
2. Inner Self's Forge Of Burning Flames 08:32
3. Flying Away... 08:48
4. Astral Vision Of Inner Corruption 08:40
5. Dark Omega 12:45
******************************
Total playing time: 48:39



Extended info
Exclusive for Metalarea.org - My own purchase

Over a rather young while no less prolific career, the Italian nihilist under the anonym as Veirg has been exploring the negative side of banal life and the shadow of depression over the fallen generation of the new millennial. With Suicide Emotions, one of his most renowned projects, Veirg push the boundary of the already controversial genre of DSBM with his aesthetic of sentimental melancholy. Suicide Emotions' sound has been evolving ever since his 2012 debut, from a straightforward minimalistic approach of classic DSBM to a more sophisticated style that favors a more atmospheric and post-metal-oriented music of sorrow, all of which are culminated in his fourth full length titled A New Dawn. This is a record all fans of this particular genre would appreciate, as Veirg skillfully combined all of those elements of dark yet enchanting catharsis per se into this record: 5 lengthy songs of gloomy fantasy with intoxicating melodies and forlorn atmosphere, making them a unforgettable journey for those like-minded troubled souls. What waits for us after the bleak winter sun breaks through the new dawn? Suicide Emotions doesn't promise an answer, but an experience, of a future rooted in self-destructive grief.


Technical info
(IMG:http://metalarea.org/images/spectrogram/2020_Aug/2360e5ddbf77e610609a0afeacff227d.png)
Input File: SUICIDE EMOTIONS - A New Dawn - 02 Inner Self\'s Forge of Burning Flames.mp3
Channels : 2
Sample Rate : 44100
Precision : 16-bit
Duration : 00:08:32.63 = 22606939 samples = 38447.2 CDDA sectors
File Size : 20.6M
Bit Rate : 321k
Sample Encoding: MPEG audio (layer I, II or III)
Comments :
Title=Inner Self's Forge Of Burning Flames
Artist=Suicide Emotions
Album=A New Dawn
Tracknumber=2
Year=2020



Register


Go to the top of the page
  Insert nick Quick quote
+Quote Post
 
Start new topic
Replies (1 - 3)
post Aug 9 2020, 01:23:56
Post #2

Два Литра
**
Group: Завсегдатай
Posts: 107
Releases: 0
On Forums: 6 years 6 months
Thanks: 81 time(s)
Unknown


ЦИТАТА(LordOvDarkness @ 8th August 2020 - 06:56:15) *
Suicide Emotions - 2020 (2020)
Так "2020" или "A New Down"?


Go to the top of the page
  Insert nick Quick quote
+Quote Post
post Aug 9 2020, 18:58:28
Post #3

Четыре Литра
****
Group: Металариец
Posts: 370
Releases: 5
On Forums: 14 years 6 months
Thanks: 304 time(s)
Russian Federation


Я склоняюсь к A New Dawn (IMG:style_emoticons/default/bye.gif)
Go to the top of the page
  Insert nick Quick quote
+Quote Post
post Aug 10 2020, 19:04:38
Post #4

Group: Подсевший
Posts: 46
Releases: 0
On Forums: 1 year 8 months
Thanks: 16 time(s)
Russian Federation


Классный депресняк
Go to the top of the page
  Insert nick Quick quote
+Quote Post

Reply to this topicStart new topic
2 User(s) are reading this topic (2 Guests and 0 Anonymous Users)
0 Members:

 



- Lo-Fi Version Support form
Copyrights and abuse reports form
Time is now: 25th September 2021 - 03:39:53