Welcome Guest ( Log In | Register )

> И неформату есть предел.

Рэп/хип-хоп/шансон/поп удаляются. Для них есть свои порталы.

> Darkness Enshroud - Antitrinity (2017), Ritual Ambient (D)
post Aug 8 2020, 09:05:42
Post #1

Правь статус, ####!111
**************
Group: Металариец
Posts: 2,086
Releases: 1649
From: Praha
On Forums: 6 years 5 months
Thanks: 42694 time(s)
Czech Republic


(IMG:http://metalarea.org/images/audiocovers/2020_Aug/acov_tid340534_thumb.jpg)

*Artist: Darkness Enshroud
*Album: Antitrinity
*Year: 2017
*Genre: Ritual Ambient
*Country: United States (IMG:http://metalarea.org/forum/style_images/flags/United%20States.png)
*Format: mp3@CBR320kbps
*Size: 119MB

Tracklist:
1. Hymn to the Dragon Cast Down to Earth 06:20
2. The Great Red Dragon of 10 Horns 02:36
3. Draco est Diabolus 07:30
4. The Devil Walketh as a Roaring Lion 08:10
5. Sickle of Desolation (Mark of the Antichrist) 07:02
6. Potestatem Habeo Suscitare Mortuos (I have the Power to Restore the Dead) 06:49
7. Prayer of the Antichrist (Self-Liberation) 06:08
8. Antitrinity (Dragon-Satan, 7-headed Beast-Antichrist, 2 Horned Beast-Spirit of Evil) 06:32
******************************
Total playing time: 51:07



Extended info
Dark Adversary Productions ‎– DA074


Technical info
(IMG:http://metalarea.org/images/spectrogram/2020_Aug/bf639b3f3ccafc7eb760bdc0009a031b.png)
Input File: 03. Draco est Diabolus.mp3
Channels : 2
Sample Rate : 44100
Precision : 16-bit
Duration : 00:07:30.12 = 19850160 samples = 33758.8 CDDA sectors
File Size : 18.1M
Bit Rate : 321k
Sample Encoding: MPEG audio (layer I, II or III)
Comments :
Title=Draco est Diabolus
Artist=Darkness Enshroud
Album=Antitrinity
Tracknumber=03/08
Year=2017
Genre=Dark Ambient



Register


Go to the top of the page
  Insert nick Quick quote
+Quote Post
 
Start new topic
Replies (1 - 3)
post Aug 11 2020, 10:53:43
Post #2

The Angel Of Death
**************
Group: Металариец
Posts: 5,634
Releases: 49
From: Луганск, 13 регион, экс-404
On Forums: 14 years 10 months
Thanks: 1859 time(s)
Papua New Guinea


Register


This post has been edited by Borderline1991: Aug 11 2020, 12:55:38
Reason for edit: hide
Go to the top of the page
  Insert nick Quick quote
+Quote Post
post Aug 11 2020, 10:56:41
Post #3

Правь статус, ####!111
**************
Group: Металариец
Posts: 47,313
Releases: 742
On Forums: 11 years 3 months
Thanks: 40242 time(s)
Russian Federation


ЦИТАТА(Alexis The Best @ Aug 11 2020, 12:53:43) *


Не та тема да и там уже в качестве есть.
Go to the top of the page
  Insert nick Quick quote
+Quote Post
post Aug 11 2020, 11:00:29
Post #4

The Angel Of Death
**************
Group: Металариец
Posts: 5,634
Releases: 49
From: Луганск, 13 регион, экс-404
On Forums: 14 years 10 months
Thanks: 1859 time(s)
Papua New Guinea


ЦИТАТА(vosmidesijatye @ 11th August 2020 - 12:56:41) *
Не та тема да и там уже в качестве есть.

вдруг кому-то ещё пригодится архив на Меге, правда в 160 кБит/с
З.Ы. ссылку отредактировал как положено (там на 2017 год)
Go to the top of the page
  Insert nick Quick quote
+Quote Post

Reply to this topicStart new topic
1 User(s) are reading this topic (1 Guests and 0 Anonymous Users)
0 Members:

 



- Lo-Fi Version Support form
Copyrights and abuse reports form
Time is now: 19th September 2020 - 00:28:11