Welcome Guest ( Log In | Register )

> Drachenorden - Sombre Chroniques (2019), Medieval Folk/Black Metal
post Aug 9 2020, 16:42:50
Post #1

Правь статус, ####!111
**************
Group: Металариец
Posts: 23,492
Releases: 16431
From: Г.Харьков
On Forums: 8 years 5 months
Thanks: 309474 time(s)
Unknown


(IMG:https://metalarea.org/images/audiocovers/2020_Aug/acov_tid340571_thumb.jpg)

*Artist: Drachenorden
*Album: Sombre Chroniques
*Year: 2019
*Genre: Medieval Folk/Black Metal
*Country: Poland (IMG:https://metalarea.org/forum/style_images/flags/Poland.png)
*Format: mp3@CBR320kbps
*Size: 152MB

Tracklist:
1. Ténèbres et Tristesse 01:50
2. Billmen Condamné 03:37
3. Ungehorsam 05:31
4. Todesjahr 05:30
5. Monde und Träume 04:55
6. Sombre Chroniques 06:33
7. Couronnement des Ténèbres 05:14
8. Forks et Spears 03:19
9. Gesicht der Sünde 01:25
10. Neugeboren aus der Asche (Siegmund Traurigkeit) 13:34
11. Ausgestoßene des Nordens 03:53
12. Ungleicher Kampf 04:23
13. Mort Silencieuse 04:26
******************************
Total playing time: 1:04:10



Extended info
Lovidalf Ranemmak VI All instruments, Vocals
See also: Jagar Tharn, Lovidalf VI, ex-King Kelkemmenar, Beatus vir, Caladrius Bird, Chaitivel, Einargoroth, Ekkehardus, Fornesbury Tales, Gilles de Retz, Humphrey's Clock, Ironhelms, Joueur D'épée, King Ranemmak, Lanval, Lovidalf Ranemmak VI, Lovidalf VI le Gros, Magna Ge, Minnesang, Mordschlaght, Salwmme, Sing Vlar, Sir Fior Furlan, The Proggs, The Sons of Aktrot, Thibaut VI de Lovidois Trouveres, Vogt Castellar, Von Neifen, Witenagemot, ex-Antiochiae, ex-Elfiria, ex-Erba Ecclesiastes Filii, ex-Procel and Raum


Technical info
(IMG:https://metalarea.org/images/spectrogram/2020_Aug/bd0e64350f140e79c89e620860d833bf.png)
Input File: 06 Sombre Chroniques.mp3
Channels : 2
Sample Rate : 44100
Precision : 16-bit
Duration : 00:06:33.90 = 17370814 samples = 29542.2 CDDA sectors
File Size : 16.2M
Bit Rate : 330k
Sample Encoding: MPEG audio (layer I, II or III)
Comments :
Title=Sombre Chroniques
Artist=Drachenorden
Album=Sombre Chroniques
Tracknumber=6/13
Year=2019-19-20
Genre=Metal
Discnumber=1/1



Register


Go to the top of the page
  Insert nick Quick quote
+Quote Post
 
Start new topic
Replies (1 - 2)
post Sep 10 2020, 10:36:08
Post #2

Два Литра
**
Group: Завсегдатай
Posts: 185
Releases: 0
From: Москва
On Forums: 14 years 1 hour
Thanks: 48 time(s)
Russian Federation


Польский Summoning, отлично спится под него)
Go to the top of the page
  Insert nick Quick quote
+Quote Post
post Oct 17 2020, 16:37:35
Post #3

FOLK METAL FEVER
**************
Group: Металариец
Posts: 2,121
Releases: 6
From: Kyiv
On Forums: 12 years 11 months
Thanks: 279 time(s)
Ukraine


Кустарщина. Не зашло. (IMG:style_emoticons/default/smile2.gif)
Go to the top of the page
  Insert nick Quick quote
+Quote Post

Reply to this topicStart new topic
1 User(s) are reading this topic (1 Guests and 0 Anonymous Users)
0 Members:

 



- Lo-Fi Version Support form
Copyrights and abuse reports form
Time is now: 24th October 2020 - 01:04:48