Welcome Guest ( Log In | Register )

> Releases Upload / Добавление релизов

Добавить релиз тут / Click here to add release
Рекомендованные обменники / Recommended file shares

> Red Room Ensemble - Endless Dark Red (2020), Melodic Heavy Metal
post Aug 9 2020, 16:59:48
Post #1

Правь статус, ####!111
**************
Group: Металариец
Posts: 23,148
Releases: 16149
From: Г.Харьков
On Forums: 8 years 4 months
Thanks: 300508 time(s)
Unknown


(IMG:https://metalarea.org/images/audiocovers/2020_Aug/acov_tid340572_thumb.jpg)

*Artist: Red Room Ensemble
*Album: Endless Dark Red
*Year: 2020
*Genre: Melodic Heavy Metal
*Country: Finland (IMG:https://metalarea.org/forum/style_images/flags/Finland.png)
*Format: mp3@CBR320kbps
*Size: 120MB

Tracklist:
1. Sacred Masterplan 04:25
2. The Sunken Cathedral 12:01
3. Salt Queen 05:09
4. Carry My Darkness 04:35
5. This Fallen Life 07:03
6. Wolf Torn Soul 04:14
7. Screaming Days of Endless Dark Red 04:49
8. Hammerhead 04:01
9. Fire Will Walk with Me 05:20
******************************
Total playing time: 51:37



Extended info
Jonathan Grönqvist Drums
Sebastian Söderlund Guitars
Kari Sundström Guitars
Torgny Stjärnfelt Vocals
Kevin Davidsson Bass


Technical info
(IMG:https://metalarea.org/images/spectrogram/2020_Aug/1dfe6c0fa1d34dee5cdf457f9619dcc4.png)
Input File: 05 - This Fallen Life.mp3
Channels : 2
Sample Rate : 44100
Precision : 16-bit
Duration : 00:07:03.08 = 18657784 samples = 31730.9 CDDA sectors
File Size : 17.1M
Bit Rate : 323k
Sample Encoding: MPEG audio (layer I, II or III)
Comments :
Title=This Fallen Life
Artist=Red Room Ensemble
Album=Endless Dark Red
Tracknumber=5
Year=2020



Register


Go to the top of the page
  Insert nick Quick quote
+Quote Post
 
Start new topic
Replies (1 - 1)
post Sep 16 2020, 03:31:32
Post #2

Ъ
**************
Group: Металариец
Posts: 10,224
Releases: 9
On Forums: 11 years 8 months
Thanks: 2064 time(s)
Sweden


Третьесорт, потенциал есть, может в следующем альбоме удивят.
Go to the top of the page
  Insert nick Quick quote
+Quote Post

Reply to this topicStart new topic
2 User(s) are reading this topic (2 Guests and 0 Anonymous Users)
0 Members:

 



- Lo-Fi Version Support form
Copyrights and abuse reports form
Time is now: 20th September 2020 - 12:21:18