Welcome Guest ( Log In | Register )

> И неформату есть предел.

Рэп/хип-хоп/шансон/поп удаляются. Для них есть свои порталы.

> Käärmekristus - ᚨᚱᚲᚺᚨᛁᚲ ᛋᚺᚨᛗᚨᚾ ᛗᚨᚷᛁᚲ [demo] (2019), Ambient
post Aug 10 2020, 08:58:59
Post #1

Правь статус, ####!111
**************
Group: Металариец
Posts: 2,086
Releases: 1649
From: Praha
On Forums: 6 years 5 months
Thanks: 42710 time(s)
Czech Republic


(IMG:https://metalarea.org/images/audiocovers/2020_Aug/acov_tid340584_thumb.jpg)

*Artist: Käärmekristus
*Album: ᚨᚱᚲᚺᚨᛁᚲ ᛋᚺᚨᛗᚨᚾ ᛗᚨᚷᛁᚲ [demo]
*Year: 2019
*Genre: Ambient
*Country: Finland (IMG:https://metalarea.org/forum/style_images/flags/Finland.png)
*Format: mp3@CBR320kbps
*Size: 72MB

Tracklist:
1. ᚨᛚᚲᚢᛋᛟᛁᛏᛏᛟ 00:49
2. ᚹᛁᚺᚨᚾ ᚹᛁᛚᛃᛟᛃᛖᚾ ᚲᛃᛚᚹᚨᛗᛁᚾᛖᚾ ᛃᚨ ᚲᚨᛚᛗᚨᚾ ᚲᚨᛗᚨᛚᚨ ᛋᚨᛞᛟᚾᚲᛟᚱᛃᚢᚢ 14:56
3. ᚹᚨᛚᛚᛖᛃ ᛟᚠ ᛋᛟᚱᚱᛟᚹᛋ ᛁᚾ ᚦᛖ ᚠᛟᚱᚷᛟᛏᛏᛖᚾ ᚹᛟᛟᛞᛋ ᚨᚾᛞ ᚦᛖ ᚲᚺᚨᛟᛏᛁᚲ ᛖᚲᛋᛏᚨᛋᛃ ᛟᚠ ᚦᛖ ᚺᚢᚾᛏ ᚹᚨᚲᛖᛋ ᚦᛖ ᚨᚾᛁᛗᚨᛚ ᛁᚾ ᛗᚨᚾ 10:15
4. ᛋᚢᛋᛁ 04:34
******************************
Total playing time: 30:34



Extended info
Death Monument - DeMo-005
Tape-rip + Scans


Technical info
(IMG:https://metalarea.org/images/spectrogram/2020_Aug/e4c369d97ea2ebe1173cfb147b6277ca.png)
Input File: 02. ᚹᛁᚺᚨᚾ ᚹᛁᛚᛃᛟᛃᛖᚾ ᚲᛃᛚᚹᚨᛗᛁᚾᛖᚾ ᛃᚨ ᚲᚨᛚᛗᚨᚾ ᚲᚨᛗᚨᛚᚨ ᛋᚨᛞᛟᚾᚲᛟᚱᛃᚢᚢ.mp3
Channels : 2
Sample Rate : 48000
Precision : 16-bit
Duration : 00:14:49.83 = 42711696 samples ~ 66737 CDDA sectors
File Size : 35.9M
Bit Rate : 323k
Sample Encoding: MPEG audio (layer I, II or III)
Comments :
Title=ᚹᛁᚺᚨᚾ ᚹᛁᛚᛃᛟᛃᛖᚾ ᚲᛃᛚᚹᚨᛗᛁᚾᛖᚾ ᛃᚨ ᚲᚨᛚᛗᚨᚾ ᚲᚨᛗᚨᛚᚨ ᛋᚨᛞᛟᚾᚲᛟᚱᛃᚢᚢ
Artist=ᚨᚱᚲᚺᚨᛁᚲ ᛋᚺᚨᛗᚨᚾ ᛗᚨᚷᛁᚲ
Album=Käärmekristus
Tracknumber=02/04
Year=2019
Genre=Ambient



Register


Go to the top of the page
  Insert nick Quick quote
+Quote Post
 
Start new topic
Replies (1 - 1)
post Sep 14 2020, 14:09:17
Post #2

Zero Tolerance
***
Group: Завсегдатай
Posts: 201
Releases: 0
On Forums: 8 years 4 days
Thanks: 32 time(s)
Unknown


Кому музл0 не вкатит - можно в качестве альтернативы руны от чухонцев почитать. (IMG:style_emoticons/default/crazy.gif) Мне не вкатило, а руны читать почти разучился.
Go to the top of the page
  Insert nick Quick quote
+Quote Post

Reply to this topicStart new topic
1 User(s) are reading this topic (1 Guests and 0 Anonymous Users)
0 Members:

 



- Lo-Fi Version Support form
Copyrights and abuse reports form
Time is now: 20th September 2020 - 12:55:45