Welcome Guest ( Log In | Register )

> И неформату есть предел.

Рэп/хип-хоп/шансон/поп удаляются. Для них есть свои порталы.

> Rope Sect - The Great Flood (2020), Deathrock
post Aug 12 2020, 09:22:28
Post #1

Четыре Литра
****
Group: Металариец
Posts: 368
Releases: 210
On Forums: 8 years 2 weeks
Thanks: 5797 time(s)
Unknown


(IMG:http://metalarea.org/images/audiocovers/2020_Aug/acov_tid340618_thumb.jpg)

*Artist: Rope Sect
*Album: The Great Flood
*Year: 2020
*Genre: Deathrock
*Country: Germany (IMG:http://metalarea.org/forum/style_images/flags/Germany.png)
*Format: mp3@CBR320kbps
*Size: 102MB

Tracklist:
1. Divide et Impera 03:44
2. Rope of the Just 03:46
3. Eleutheria 04:01
4. Prison of You 04:28
5. The Underground Paradise 05:04
6. Hiraeth 05:04
7. Flood Flower 04:36
8. Non Serviemus 03:40
9. Issohadores 03:32
10. Diluvian Darkness 06:26
******************************
Total playing time: 44:21



Extended info
IRON BONEHEAD PRODUCTIONS is proud to present ROPE SECT's highly anticipated debut album, The Great Flood, on CD and vinyl LP formats.

Germany's ROPE SECT quietly but auspiciously debuted in 2017 with their first EP, Personae Ingratae, released by IRON BONEHEAD. While something of a "dark horse" for the label, ROPE SECT's disarmingly Spartan style of deathrock soon found fervent followers around the globe, and word-of-mouth momentum built from there. Further proving that there were yet further twists to the trio's idiosyncratic sound, the Proselytes 7" followed later in 2017 for IRON BONEHEAD. ROPE SECT also took the stage thereafter, supporting the esteemed likes of Grave Pleasures and King Dude among others.

With almost graceful ease, ROPE SECT deliver their stunning debut album, aptly titled The Great Flood. Indeed, this first full-length floods the listener with a vast array of sounds and textures, paradoxically pulled tighter and in a more monochromatic manner. It is a record of stark contrasts, subtly drawn together: more delicate vs. more driving, more melody vs. more motorik, shimmering atmosphere vs. clanging minimalism, sharp stabs vs. smooth caresses. Each of these ten songs feels like something old - an old song, an old feeling, an old friend - brought back to life and revamped into a ghost of itself, perversely inviting but portending great gloom 'n' doom. And while there might've been trace elements of black metal across ROPE SECT's prior short-lengths, here on The Great Flood, that's all excised in favor of simply BLACK - and the boundless colors absorbed (and reconstituted) therein. The sum emphasis is on the SONGS, and these are all anti-anthems worth singing...or not. ROPE SECT, now more ever, are existing in their own bleak and brilliantly rarefied world.

And birds of a dark (and rarefied) feather flock together: Mat "Kvohst" McNerney (Hexvessel/Grave Pleasures) contributes lyrics and guest vocals on two tracks. Completed by icy-yet-warm mastering courtesy of Horrendous' Damian Herring, ROPE SECT's The Great Flood will for sure be a debut album for the (dark) ages.


Technical info
(IMG:http://metalarea.org/images/spectrogram/2020_Aug/e7a136ff3c1d09dfb7dc08de9da01ac0.png)
Input File: 01 - Divide Et Impera.mp3
Channels : 2
Sample Rate : 44100
Precision : 16-bit
Duration : 00:03:44.51 = 9900935 samples = 16838.3 CDDA sectors
File Size : 9.06M
Bit Rate : 323k
Sample Encoding: MPEG audio (layer I, II or III)
Comments :
Title=Divide Et Impera
Artist=Rope Sect
Album=The Great Flood
Tracknumber=1
Year=2020-08-12
Genre=Alternative; Rock; Hard Rock
Discnumber=1



Register


Go to the top of the page
  Insert nick Quick quote
+Quote Post
 
Start new topic
Replies (1 - 5)
post Aug 19 2020, 16:56:51
Post #2

Шесть Литров
******
Group: Металариец
Posts: 529
Releases: 11
On Forums: 13 years 1 week
Thanks: 215 time(s)
Unknown


Прикольно, по игре чем-то напомнили финнов Beastmilk, которые сейчас Grave Pleasures называются. Правда вокал здесь немного другой. Такой вокал тоже где-то слышал, не могу вспомнить сейчас. Ну, в принципе, это тот вариант готик рока, который буду переслушивать. Как шведский Boy In The Shadows - сыграно все просто, но вставляет. Осенью хорошо пойдет.


Thanks:
(1) SAPOGi,
Go to the top of the page
  Insert nick Quick quote
+Quote Post
post Aug 19 2020, 17:18:59
Post #3

Три Литра
***
Group: Завсегдатай
Posts: 215
Releases: 0
On Forums: 10 years 8 months
Thanks: 231 time(s)
Unknown


С указанными финиками сравнение очень натянуто, хоть Хвост и спел в двух трэках на этом альбоме.

Rope Sect по звучанию очень близок к мадьярам Edelweiss.
На крайний случай, можно ещё вспомнить Assassination, прасти хосспаде.

И если кто не знает его же проект Fields of Mildew - рекомендую ознакомиться. Акустический дарк фолк в той же безысходно-печальной стилистике Rope Sect.
Go to the top of the page
  Insert nick Quick quote
+Quote Post
post Aug 25 2020, 12:03:33
Post #4

кручу наждак
**************
Group: Металариец
Posts: 4,571
Releases: 102
From: Самара
On Forums: 10 years 4 months
Thanks: 3657 time(s)
Russian Federation


Приятный, расслабляющий рочок.
Go to the top of the page
  Insert nick Quick quote
+Quote Post
post Aug 25 2020, 17:35:20
Post #5

Group: Подсевший
Posts: 24
Releases: 0
On Forums: 1 month 2 days
Thanks: 12 time(s)
Unknown


Если первый альбом Rope Sect звучал хорошо, то второй альбом звучит просто отлично! По сути здесь обыкновенный рок, простенько сыгранный, но при этом запоминающийся и к которому хочется возвращаться. Убеждаюсь в очередной раз что Iron Bonehead Productions по прежнему может удивить своими релизами. Приятно удивить
Go to the top of the page
  Insert nick Quick quote
+Quote Post
post Sep 20 2020, 18:31:59
Post #6

убивай меломанов
**********
Group: Металариец
Posts: 1,009
Releases: 6
On Forums: 10 years 2 weeks
Thanks: 1304 time(s)
Ukraine


я бы сравнил с ghost, как если бы тобиасу сделали лоботомию, но он сохранил бы способность сочинять крутую музыку. ну просто она была бы теперь такая.
крутой альбом.
Go to the top of the page
  Insert nick Quick quote
+Quote Post

Reply to this topicStart new topic
1 User(s) are reading this topic (1 Guests and 0 Anonymous Users)
0 Members:

 



- Lo-Fi Version Support form
Copyrights and abuse reports form
Time is now: 27th September 2020 - 04:27:23