Welcome Guest ( Log In | Register )

> Releases Upload / Добавление релизов

Добавить релиз тут / Click here to add release
Рекомендованные обменники / Recommended file shares

> Unsilent - Obscure & Profane (2020), Black Metal (D4)
post Aug 12 2020, 11:59:28
Post #1

Правь статус, ####!111
**************
Group: Металариец
Posts: 23,119
Releases: 16120
From: Г.Харьков
On Forums: 8 years 4 months
Thanks: 299671 time(s)
Unknown


(IMG:https://metalarea.org/images/audiocovers/2020_Aug/acov_tid340623_thumb.jpg)

*Artist: Unsilent
*Album: Obscure & Profane
*Year: 2020
*Genre: Black Metal
*Country: Chile (IMG:https://metalarea.org/forum/style_images/flags/Chile.png)
*Format: mp3@CBR320kbps
*Size: 118MB

Tracklist:
1. Black Spells of Death 05:13
2. Crowns of Blood 04:59
3. Endless Journey 05:44
4. Insorcism (Great Darkness) 04:34
5. Manifesto 04:07
6. Are You the Creator? 04:48
7. I Am Holocaust 04:09
8. Chaotic Madness Dimensions 03:53
9. Obscure & Profane 04:08
10. Morbid Obssessions 04:18
11. The Blackest Spells of Death 04:41
******************************
Total playing time: 50:34




Extended info
Alvaro U Guitars, Bass, Vocals
Francisco L. Drums
Cristian P. Guitars


Technical info
(IMG:https://metalarea.org/images/spectrogram/2020_Aug/33ac95dab56e4234fa086aa2b84458c9.png)
Input File: 06 - Are You the Creator.mp3
Channels : 2
Sample Rate : 44100
Precision : 16-bit
Duration : 00:04:48.78 = 12735022 samples = 21658.2 CDDA sectors
File Size : 11.8M
Bit Rate : 326k
Sample Encoding: MPEG audio (layer I, II or III)
Comments :
Title=Are You the Creator
Artist=Unsilent
Album=Obscure & Profane
Tracknumber=6
Year=2020



Register


Go to the top of the page
  Insert nick Quick quote
+Quote Post
 
Start new topic
Replies (1 - 4)
post Aug 12 2020, 14:49:12
Post #2

While Waiting the Worms
**********
Group: Металариец
Posts: 1,104
Releases: 0
On Forums: 6 years 8 months
Thanks: 1591 time(s)
Unknown


Гoвнo.
Go to the top of the page
  Insert nick Quick quote
+Quote Post
post Aug 12 2020, 17:30:54
Post #3

Девять Литров
*********
Group: Металариец
Posts: 973
Releases: 0
From: Новосибирск
On Forums: 11 years 3 weeks
Thanks: 271 time(s)
Russian Federation


ЦИТАТА
1. Black Spells of Death 05:13

11. The Blackest Spells of Death 04:41


Оригинальнейше (IMG:style_emoticons/default/15.gif)


Go to the top of the page
  Insert nick Quick quote
+Quote Post
post Aug 12 2020, 18:20:12
Post #4
BAN
RO till
Sep 15 2020, 14:44:31



Ловите теги для статусов вконтакте

IV
At the gates of hell
With blacked magic rites
Where throne of darkness
Destroys every light

V
I am obscure
I am Profane
I´m lord of chaos
A Burning angel
Falling down on earth


Thanks:
Go to the top of the page
  Insert nick Quick quote
+Quote Post
post Aug 12 2020, 18:33:34
Post #5

Правь статус, ####!111
**************
Group: Металариец
Posts: 47,311
Releases: 742
On Forums: 11 years 3 months
Thanks: 40196 time(s)
Russian Federation


ЦИТАТА(sethurius @ Aug 12 2020, 21:20:12) *
Ловите теги для статусов вконтакте

V
I am obscure
I am Profane
I´m lord of chaos
A Burning angel
Falling down on earth


Вспомнились незабвенные строки

I am pure
I am true
I am all over you

(IMG:style_emoticons/default/1488.gif)


Thanks:
Go to the top of the page
  Insert nick Quick quote
+Quote Post

Reply to this topicStart new topic
1 User(s) are reading this topic (1 Guests and 0 Anonymous Users)
0 Members:

 



- Lo-Fi Version Support form
Copyrights and abuse reports form
Time is now: 18th September 2020 - 08:39:55