Welcome Guest ( Log In | Register )

> И неформату есть предел.

Рэп/хип-хоп/шансон/поп удаляются. Для них есть свои порталы.

 
Reply to this topicStart new topic
> Kevin Wet - Hard Attack [ep] (1983), Hard Rock
post Aug 12 2020, 20:53:57
Post #1

Семь Литров
*******
Group: Металариец
Posts: 798
Releases: 168
On Forums: 1 year 7 months
Thanks: 2125 time(s)
Canada


(IMG:https://metalarea.org/images/audiocovers/2020_Aug/acov_tid340639_thumb.jpg)

*Artist: Kevin Wet
*Album: Hard Attack [ep]
*Year: 1983
*Genre: Hard Rock
*Country: United States (IMG:https://metalarea.org/forum/style_images/flags/United%20States.png)
*Format: mp3@CBR192kbps
*Size: 32MB

Tracklist:
1. Babies of the Night 05:33
2. I Love To Be Kissed 04:40
3. Neon Father 04:12
4. Hard Attack 03:44
5. The Dreamer 04:05
******************************
Total playing time: 22:14



Technical info
(IMG:https://metalarea.org/images/spectrogram/2020_Aug/882760ee6891366604981200200b6192.png)
Input File: 04. Hard Attack.mp3
Channels : 2
Sample Rate : 44100
Precision : 16-bit
Duration : 00:03:45.00 = 9922456 samples = 16874.9 CDDA sectors
File Size : 5.40M
Bit Rate : 192k
Sample Encoding: MPEG audio (layer I, II or III)
Comments :
Title=Hard Attack
Artist=Kevin Wet
Album=Hard Attack
Tracknumber=4
Year=1983



Register


Go to the top of the page
  Insert nick Quick quote
+Quote Post

Reply to this topicStart new topic
1 User(s) are reading this topic (1 Guests and 0 Anonymous Users)
0 Members:

 



- Lo-Fi Version Support form
Copyrights and abuse reports form
Time is now: 27th September 2020 - 03:54:01