Welcome Guest ( Log In | Register )

> Releases Upload / Добавление релизов

Добавить релиз тут / Click here to add release
Рекомендованные обменники / Recommended file shares

 
Reply to this topicStart new topic
> Hateclash - Daily Shit (2019), Thrash Metal
post Aug 12 2020, 23:16:44
Post #1

Правь статус, ####!111
**************
Group: Металариец
Posts: 23,119
Releases: 16120
From: Г.Харьков
On Forums: 8 years 4 months
Thanks: 299679 time(s)
Unknown


(IMG:https://metalarea.org/images/audiocovers/2020_Aug/acov_tid340641_thumb.jpg)

*Artist: Hateclash
*Album: Daily Shit
*Year: 2019
*Genre: Thrash Metal
*Country: Chile (IMG:https://metalarea.org/forum/style_images/flags/Chile.png)
*Format: mp3@CBR320kbps
*Size: 73MB

Tracklist:
1. Intro 01:58 instrumental
2. Stuck 03:15
3. Deceivers 02:58
4. Beyond Your Nose 04:38
5. Hunting the Weak 04:02
6. War Alarm 02:52
7. Sick City 04:37
8. Daily Shit 03:52
******************************
Total playing time: 28:12




Extended info
Hishan Farfan Drums
See also: Mar Muerto, ex-Ánastros
Guillermo Pizarro Guitars, Vocals (additional)
See also: ex-Ánastros (live)
Roberto Lameli Guitars, Vocals (lead)
Braulio Cortés Bass, Vocals (additional) (2017-present)
See also: Orden 66



Technical info
(IMG:https://metalarea.org/images/spectrogram/2020_Aug/19198ad7ed4acabb3621f378d5d22aa3.png)
Input File: 04 Beyond Your Nose.mp3
Channels : 2
Sample Rate : 44100
Precision : 16-bit
Duration : 00:04:38.09 = 12263681 samples = 20856.6 CDDA sectors
File Size : 12.2M
Bit Rate : 350k
Sample Encoding: MPEG audio (layer I, II or III)
Comments :
Title=Beyond Your Nose
Artist=Hateclash
Album=Daily Shit
Tracknumber=4/8
Year=2019-20-20
Discnumber=1/1



Register


Go to the top of the page
  Insert nick Quick quote
+Quote Post

Reply to this topicStart new topic
1 User(s) are reading this topic (1 Guests and 0 Anonymous Users)
0 Members:

 



- Lo-Fi Version Support form
Copyrights and abuse reports form
Time is now: 18th September 2020 - 09:29:35