Welcome Guest ( Log In | Register )

> Ov Shadows - I Djävulens Avbild (2020), Black Metal
post Aug 13 2020, 12:44:23
Post #1

Serial Uploader
Group Icon
Group: V.I.P
Posts: 37,532
Releases: 35706
From: Lithuania
On Forums: 12 years 5 months
Thanks: 430250 time(s)
Lithuania


(IMG:https://metalarea.org/images/audiocovers/2020_Aug/acov_tid340654_thumb.jpg)

*Artist: Ov Shadows
*Album: I Djävulens Avbild
*Year: 2020
*Genre: Black Metal
*Country: Sweden (IMG:https://metalarea.org/forum/style_images/flags/Sweden.png)
*Format: mp3@CBR320kbps
*Size: 97MB

Tracklist:
01. Den Eld Som Tär Och Förvrider 06:26
02. Blasfemiskt Crescendo 06:24
03. Under Dödens Vingar 05:44
04. Anakoretens Gap 05:07
05. I Djävulens Avbild 06:09
06. Spotsk 06:34
07. Av Kunskap Krönt Till Gud 06:34
******************************
Total playing time: 42:58



(IMG:https://metalarea.org/images/youtube.png)

Technical info
(IMG:https://metalarea.org/images/spectrogram/2020_Aug/8307feefc99936924f88aaa448b281b8.png)
Input File: 2 - Blasfemiskt Crescendo.mp3
Channels : 2
Sample Rate : 44100
Precision : 16-bit
Duration : 00:06:24.63 = 16961963 samples = 28846.9 CDDA sectors
File Size : 15.4M
Bit Rate : 320k
Sample Encoding: MPEG audio (layer I, II or III)
Comments :
Title=Blasfemiskt Crescendo
Artist=Ov Shadows
Album=I Djävulens Avbild
Tracknumber=2
Year=2020
Discnumber=1



Register


Go to the top of the page
  Insert nick Quick quote
+Quote Post
 
Start new topic
Replies (1 - 3)
post Aug 14 2020, 14:29:25
Post #2

melofags sniper
**************
Group: Металариец
Posts: 5,839
Releases: 0
On Forums: 12 years 8 months
Thanks: 5865 time(s)
Unknown


Absolutely nothing interesting here.
Copycat, flat, uninspired, polished and with Post BM elements.


Go to the top of the page
  Insert nick Quick quote
+Quote Post
post Aug 15 2020, 10:30:15
Post #3

Group: Подсевший
Posts: 17
Releases: 0
On Forums: 7 months 2 weeks
Thanks: 13 time(s)
Unknown


А по мне так неплохо...
Flac (tracks)
Register


Go to the top of the page
  Insert nick Quick quote
+Quote Post
post Nov 21 2020, 20:17:18
Post #4

Правь статус, ####!111
**************
Group: Металариец
Posts: 4,759
Releases: 1449
From: Brazil
On Forums: 8 years 9 months
Thanks: 52900 time(s)
Brazil


Register

mp3@CBR320kbps
Go to the top of the page
  Insert nick Quick quote
+Quote Post

Reply to this topicStart new topic
2 User(s) are reading this topic (2 Guests and 0 Anonymous Users)
0 Members:

 



- Lo-Fi Version Support form
Copyrights and abuse reports form
Time is now: 29th November 2020 - 00:07:10