Welcome Guest ( Log In | Register )

> Cancer - Opioid (2020), Depressive Black Metal (D)
post Aug 13 2020, 13:28:12
Post #1

Serial Uploader
Group Icon
Group: V.I.P
Posts: 37,532
Releases: 35706
From: Lithuania
On Forums: 12 years 5 months
Thanks: 430242 time(s)
Lithuania


(IMG:https://metalarea.org/images/audiocovers/2020_Aug/acov_tid340659_thumb.jpg)

*Artist: Cancer
*Album: Opioid
*Year: 2020
*Genre: Depressive Black Metal
*Country: Australia (IMG:https://metalarea.org/forum/style_images/flags/Australia.png)
*Format: mp3@CBR320kbps
*Size: 82MB

Tracklist:
01. The Eater 02:28
02. The Dreamer 03:32
03. The Depths I - The Child I Am 05:11
04. The Depths II - Mind's Parchment 05:03
05. The Depths III - The Dames of Affliction 04:15
06. The Depths IV - Summit's Delusion 05:15
07. The Depths V - Sunken Piers 03:52
08. The Depths VI - In Memorium 06:02
******************************
Total playing time: 35:38



(IMG:https://metalarea.org/images/youtube.png)

Technical info
(IMG:https://metalarea.org/images/spectrogram/2020_Aug/d2836e16762a4120ad3808a1b2c24124.png)
Input File: 2. The Dreamer.mp3
Channels : 2
Sample Rate : 44100
Precision : 16-bit
Duration : 00:00:00.21 = 9349 samples = 15.8997 CDDA sectors
File Size : 8.58M
Bit Rate : 324M
Sample Encoding: MPEG audio (layer I, II or III)
Comments :
Title=The Dreamer
Artist=Cancer
Album=Opioid
Tracknumber=2
Year=2020
Genre=Black Metal
Discnumber=1



Register


Go to the top of the page
  Insert nick Quick quote
+Quote Post
 
Start new topic
Replies (1 - 4)
post Aug 13 2020, 20:51:00
Post #2

melofags sniper
**************
Group: Металариец
Posts: 5,839
Releases: 0
On Forums: 12 years 8 months
Thanks: 5864 time(s)
Unknown


These depressed idiots hamsters should be slapped for using such an established band name.


Go to the top of the page
  Insert nick Quick quote
+Quote Post
post Aug 13 2020, 21:05:14
Post #3

Only Death is Real
**********
Group: Металариец
Posts: 1,427
Releases: 0
From: R'lyeh
On Forums: 3 years 11 months
Thanks: 1756 time(s)
Poland


QUOTE(babanguida @ Aug 13 2020, 21:51:00) *
These depressed idiots hamsters should be slapped for using such an established band name.


Yes, and one more slap for being depressed. (IMG:style_emoticons/default/1488.gif)


Go to the top of the page
  Insert nick Quick quote
+Quote Post
post Aug 13 2020, 22:56:38
Post #4

любитель шведской buzzzzy'ны
**************
Group: Металариец
Posts: 7,256
Releases: 349
From: На берегах Оки и Волги одновремеННо
On Forums: 13 years 11 months
Thanks: 23511 time(s)
Russian Federation


Расходимся пасаны, Кансер не тот.
А если серьёзно, то да, какое-то такое себе около дно, хотя обложка и страна привлекли.

По музыке - очень легко, в лучшем случае меланхолично (как первый Лантлос, только тут не то пальто от слова совсем), всё на самом деле душит эта мазафакерская подача вокала, мазафакерская постановка ударных (даже гонимые чёлкари - ботинкоглядетели типа Heretoir не так окончательно хреново слушаются как эти). Слишком пресно, вылизано (где гараж, твою мать?), не атмосферно (гитараст страдал с гитарой, но дурник который трещётит тапками по линоле и ужаленый вокалёр - "шта? мы же тут лучше делаем всё), а больше атмосерно. Потому что вокал на корню убивает даже гитарные ходы. Дослушал, но хотел убиться но не от настроения, а от того что заставлял себя это уже через силу слушать. Давно такого не было и вот опять. Даже редкие и в тему гитарные ходы не могут вытянуть релиз из среднего среди худших.


Да и вообще какого хрена здесь происходит, когда начинаешь и вправду задумываться - что с вами не так?
У тех же Садистик Экземкьюшен на Магусе (хрен знат какой давности, между прочим) звук почти реальной материальной музыки, которая вылезает из колонок чтобы тебя от3,14здить, а не подобия тригерных ударных и шипения в микрофон, чо теперь на реальных инструментах писаться не обязательно? На Самсунге Галакси надо всё делать что ли теперь дно какое-то.


Go to the top of the page
  Insert nick Quick quote
+Quote Post
post Nov 21 2020, 20:22:43
Post #5

Правь статус, ####!111
**************
Group: Металариец
Posts: 4,759
Releases: 1449
From: Brazil
On Forums: 8 years 9 months
Thanks: 52900 time(s)
Brazil


Register

mp3@CBR320kbps
Go to the top of the page
  Insert nick Quick quote
+Quote Post

Reply to this topicStart new topic
2 User(s) are reading this topic (2 Guests and 0 Anonymous Users)
0 Members:

 



- Lo-Fi Version Support form
Copyrights and abuse reports form
Time is now: 28th November 2020 - 23:38:36