Welcome Guest ( Log In | Register )

> Releases Upload / Добавление релизов

Добавить релиз тут / Click here to add release
Рекомендованные обменники / Recommended file shares

 
Reply to this topicStart new topic
> Orbyssmal - Gloatthe (2020), Experimental Black/Death Metal
post Aug 17 2020, 17:02:20
Post #1

Правь статус, ####!111
**************
Group: Металариец
Posts: 3,013
Releases: 2701
From: Одесса
On Forums: 12 years 3 months
Thanks: 26646 time(s)
Ukraine


(IMG:http://metalarea.org/images/audiocovers/2020_Aug/acov_tid340750_thumb.jpg)

*Artist: Orbyssmal
*Album: Gloatthe
*Year: 2020
*Genre: Experimental Black/Death Metal
*Country: Australia (IMG:http://metalarea.org/forum/style_images/flags/Australia.png)
*Format: mp3@CBR320kbps
*Size: 82MB

Tracklist:
1. Gluant 02:11
2. Tentacle 03:38
3. Canker 04:04
4. Quiver the Qualm 03:28
5. Manorisms 02:35
6. Ambiguise 02:07
7. Unbeknownst 03:04
8. Barrenaurealism 02:53
9. Sigil Unbidden 04:19
10. Contort 03:04
11. Sewed 03:02
******************************
Total playing time: 34:25



Technical info
(IMG:http://metalarea.org/images/spectrogram/2020_Aug/16300431b24165138f688102f12bbbe3.png)
Input File: 06. Ambiguise.mp3
Channels : 2
Sample Rate : 44100
Precision : 16-bit
Duration : 00:02:07.96 = 5642948 samples = 9596.85 CDDA sectors
File Size : 5.15M
Bit Rate : 322k
Sample Encoding: MPEG audio (layer I, II or III)
Comments :
Title=Ambiguise
Artist=Orbyssmal
Album=Gloatthe
Tracknumber=6
Year=2020
Genre=Experimental Black/Death Metal



Register


Go to the top of the page
  Insert nick Quick quote
+Quote Post

Reply to this topicStart new topic
1 User(s) are reading this topic (1 Guests and 0 Anonymous Users)
0 Members:

 



- Lo-Fi Version Support form
Copyrights and abuse reports form
Time is now: 18th September 2020 - 21:57:44