Welcome Guest ( Log In | Register )

> Releases Upload / Добавление релизов

Добавить релиз тут / Click here to add release
Рекомендованные обменники / Recommended file shares

 
Reply to this topicStart new topic
> Three Thirteen - Devil Music [ep] (2011), Thrash Metal
post Aug 17 2020, 19:46:00
Post #1

Все люди - черви.
**********
Group: Металариец
Posts: 1,160
Releases: 145
From: Пхёнъян, Северная Корея
On Forums: 7 years 8 months
Thanks: 4453 time(s)
North Korea


(IMG:https://metalarea.org/images/audiocovers/2020_Aug/acov_tid340753_thumb.jpg)

*Artist: Three Thirteen
*Album: Devil Music [ep]
*Year: 2011
*Genre: Thrash Metal
*Country: United States (IMG:https://metalarea.org/forum/style_images/flags/United%20States.png)
*Format: mp3@CBR320kbps
*Size: 61MB

Tracklist:
1. Devil Music Intro 00:27
2. It's a Long Way to the Top (If You Wanna Rock n Roll) 04:40
3. Rocket Ride 04:13
4. Beer Drinkers and Hell Raisers 03:19
5. Caught in a Mosh 05:06
6. Ramble On 04:39
7. We're Not Gonna Take It 03:16
8. Devil Music Outro 01:09
******************************
Total playing time: 26:49

Technical info
(IMG:https://metalarea.org/images/spectrogram/2020_Aug/407d138d9969b2729ff6538e3c0f2304.png)
Input File: 02 It\'s a Long Way to the Top (If Yo.mp3
Channels : 2
Sample Rate : 48000
Precision : 16-bit
Duration : 00:04:39.60 = 13420944 samples ~ 20970.2 CDDA sectors
File Size : 11.2M
Bit Rate : 320k
Sample Encoding: MPEG audio (layer I, II or III)
Comments :
Title=It's a Long Way to the Top (If You Wanna Rock N Roll)
Artist=Three Thirteen
Album=Devil Music (EP)
Tracknumber=2/8
Year=2011
Genre=Thrash Metal
Discnumber=1/1



Register


Go to the top of the page
  Insert nick Quick quote
+Quote Post

Reply to this topicStart new topic
1 User(s) are reading this topic (1 Guests and 0 Anonymous Users)
0 Members:

 



- Lo-Fi Version Support form
Copyrights and abuse reports form
Time is now: 18th September 2020 - 21:40:08