Welcome Guest ( Log In | Register )

> Atramentus - Stygian (2020), Black/Death/Doom Metal
post Aug 20 2020, 14:19:28
Post #1

Serial Uploader
Group Icon
Group: V.I.P
Posts: 37,532
Releases: 35706
From: Lithuania
On Forums: 12 years 10 months
Thanks: 431399 time(s)
Lithuania


(IMG:https://metalarea.org/images/audiocovers/2020_Aug/acov_tid340842_thumb.jpg)

*Artist: Atramentus
*Album: Stygian
*Year: 2020
*Genre: Black/Death/Doom Metal
*Country: Canada (IMG:https://metalarea.org/forum/style_images/flags/Canada.png)
*Format: mp3@CBR320kbps
*Size: 102MB

Tracklist:
01. Stygian I_ From Tumultuous Heavens… (Descended Forth the Ceaseless Darkness) 16:29
02. Stygian II_ In Ageless Slumber (As I Dream in the Doleful Embrace of the Howling Black Winds) 04:54
03. Stygian III_ Perennial Voyage (Across the Perpetual Planes of Crying Frost & Steel-Eroding Blizzards) 23:18
******************************
Total playing time: 44:41


(IMG:https://metalarea.org/images/youtube.png)

Technical info
(IMG:https://metalarea.org/images/spectrogram/2020_Aug/e278a7c3ba411dbe3c2e66cf4bc48e4f.png)
Input File: 2. Stygian II_ In Ageless Slumber (As I Dream in the Doleful Embrace of the Howling Black Winds).mp3
Channels : 2
Sample Rate : 44100
Precision : 16-bit
Duration : 00:00:00.29 = 12965 samples = 22.0493 CDDA sectors
File Size : 11.8M
Bit Rate : 322M
Sample Encoding: MPEG audio (layer I, II or III)
Comments :
Title=Stygian II: In Ageless Slumber (As I Dream in the Doleful Embrace of the Howling Black Winds)
Artist=Atramentus
Album=Stygian
Tracknumber=2
Year=2020
Genre=Black Metal
Discnumber=1



Register


Go to the top of the page
  Insert nick Quick quote
+Quote Post
 
Start new topic
Replies (1 - 7)
post Aug 20 2020, 21:07:05
Post #2

hearer & reader
**************
Group: Металариец
Posts: 9,619
Releases: 170
From: Moscow
On Forums: 13 years 7 months
Thanks: 10626 time(s)
Russian Federation


ЦИТАТА
Extreme Funeral Doom/Dark Ambient
Go to the top of the page
  Insert nick Quick quote
+Quote Post
post Aug 20 2020, 21:12:37
Post #3

Правь статус, ####!111
Group Icon
Group: V.I.P
Posts: 4,657
Releases: 318
On Forums: 10 years 2 months
Thanks: 13189 time(s)
Russian Federation


20 Buck Hype зарешал, как всегда. Достойный релиз, где дум выходит на первый план
Go to the top of the page
  Insert nick Quick quote
+Quote Post
post Aug 21 2020, 07:02:21
Post #4

Group: Дух
Posts: 9
Releases: 0
On Forums: 12 years 6 months
Thanks: 0 time(s)
United States


pretty decent album from my one listen. thanks!
Go to the top of the page
  Insert nick Quick quote
+Quote Post
post Aug 21 2020, 23:57:24
Post #5

Шесть Литров
******
Group: Металариец
Posts: 608
Releases: 1
From: АР Крым, Симферополь
On Forums: 13 years 2 weeks
Thanks: 309 time(s)
Russian Federation


Bandcamp:
https://listen.20buckspin.com/album/stygian

YouTube:


Thanks:
Go to the top of the page
  Insert nick Quick quote
+Quote Post
post Aug 28 2020, 13:43:48
Post #6

Правь статус, ####!111
**************
Group: Металариец
Posts: 4,263
Releases: 161
From: MoscoW
On Forums: 14 years 4 months
Thanks: 4306 time(s)
Russian Federation


Go to the top of the page
  Insert nick Quick quote
+Quote Post
post Aug 28 2020, 14:17:51
Post #7

Шесть Литров
******
Group: Металариец
Posts: 505
Releases: 0
From: Лыткарино
On Forums: 1 year 11 months
Thanks: 132 time(s)
Russian Federation


Здесь больше фьюнерал, причём, хороший и загробный, как надо)
Go to the top of the page
  Insert nick Quick quote
+Quote Post
post Aug 28 2020, 14:36:25
Post #8

Чёткий пацан из Автово...
Group Icon
Group: V.I.P
Posts: 9,317
Releases: 40
From: Город над вольной Невой...
On Forums: 14 years 9 months
Thanks: 4803 time(s)
Russian Federation


Монолитный, тёмный и по-настоящему БОЛЬШОЙ альбом!
Go to the top of the page
  Insert nick Quick quote
+Quote Post

Reply to this topicStart new topic
2 User(s) are reading this topic (2 Guests and 0 Anonymous Users)
0 Members:

 



- Lo-Fi Version Support form
Copyrights and abuse reports form
Time is now: 18th April 2021 - 00:16:41