Welcome Guest ( Log In | Register )

> Avernal - Tzompantli (2020), Death'N'Roll
post Aug 21 2020, 17:40:19
Post #1

Правь статус, ####!111
**************
Group: Металариец
Posts: 25,788
Releases: 18466
From: Г.Харьков
On Forums: 8 years 11 months
Thanks: 364666 time(s)
Unknown


(IMG:http://metalarea.org/images/audiocovers/2020_Aug/acov_tid340864_thumb.jpg)

*Artist: Avernal
*Album: Tzompantli
*Year: 2020
*Genre: Death'N'Roll
*Country: Argentina (IMG:http://metalarea.org/forum/style_images/flags/Argentina.png)
*Format: mp3@CBR320kbps
*Size: 84MB

Tracklist:
1. Hilera de cráneos 03:49
2. Kraken 02:55
3. Arquitectura pestilente 04:13
4. El ungido 06:03
5. La densidad 05:56
6. Los desesperados 03:46
7. Frío despertar apocalíptico 03:09
8. Carne para la bestia 03:28
******************************
Total playing time: 33:19




Extended info
Fede Ramos Guitars
Cristian Rodriguez Vocals
German Rodriguez Drums
Francisco Cañardo Bass
Sebastián Barrionuevo Guitars


Technical info
(IMG:http://metalarea.org/images/spectrogram/2020_Aug/292c4f597c1aa84a48f732019a3829e2.png)
Input File: 04 El Ungido.mp3
Channels : 2
Sample Rate : 44100
Precision : 16-bit
Duration : 00:06:03.12 = 16013680 samples = 27234.1 CDDA sectors
File Size : 15.5M
Bit Rate : 342k
Sample Encoding: MPEG audio (layer I, II or III)
Comments :
Title=El Ungido
Artist=Avernal
Album=Tzopantli
Tracknumber=4/8
Year=2020-20-20
Genre=Metal
Discnumber=1/1



Register


Go to the top of the page
  Insert nick Quick quote
+Quote Post
 
Start new topic
Replies (1 - 4)
post Aug 21 2020, 20:42:05
Post #2
BAN
Banned till
Jul 16 2021, 09:09:26



Ушли от Death'N'Roll.
ороший мелодик
Go to the top of the page
  Insert nick Quick quote
+Quote Post
post Aug 22 2020, 00:12:37
Post #3

Шесть Литров
******
Group: Металариец
Posts: 608
Releases: 1
From: АР Крым, Симферополь
On Forums: 13 years 2 weeks
Thanks: 309 time(s)
Russian Federation


Я бы это даже олдскульчиком таким добротным назвал, вокал дык вообще заслуживает отдельной похвалы, а по самому саунду более напоминают американщину и шведятину начала 90-ых...


Go to the top of the page
  Insert nick Quick quote
+Quote Post
post Aug 22 2020, 16:49:01
Post #4

Маньяк
**********
Group: Металариец
Posts: 1,415
Releases: 3
From: Новороссия
On Forums: 15 years 2 months
Thanks: 774 time(s)
Russian Federation


Где тут мелодик не понятно, типичный ДЭТ, такого дэта килотонные наштампованы, нового ничего нет, но сделано прилично.
Go to the top of the page
  Insert nick Quick quote
+Quote Post
post Aug 25 2020, 11:22:50
Post #5

Правь статус, ####!111
**************
Group: Металариец
Posts: 9,211
Releases: 0
From: Москва
On Forums: 11 years 8 months
Thanks: 16683 time(s)
Russian Federation


Register
320


Thanks:
Go to the top of the page
  Insert nick Quick quote
+Quote Post

Reply to this topicStart new topic
2 User(s) are reading this topic (2 Guests and 0 Anonymous Users)
0 Members:

 



- Lo-Fi Version Support form
Copyrights and abuse reports form
Time is now: 19th April 2021 - 09:56:58