Welcome Guest ( Log In | Register )

> Pig Destroyer - The Octagonal Stairway [ep] (2020), Grindcore (D)
post Aug 27 2020, 14:15:24
Post #1

Serial Uploader
Group Icon
Group: V.I.P
Posts: 37,532
Releases: 35706
From: Lithuania
On Forums: 12 years 8 months
Thanks: 431037 time(s)
Lithuania


(IMG:https://metalarea.org/images/audiocovers/2020_Aug/acov_tid341030_thumb.jpg)

*Artist: Pig Destroyer
*Album: The Octagonal Stairway [ep]
*Year: 2020
*Genre: Grindcore
*Country: United States (IMG:https://metalarea.org/forum/style_images/flags/United%20States.png)
*Format: mp3@CBR320kbps
*Size: 60MB

Tracklist:
01. The Octagonal Stairway 03:45
02. The Cavalry 03:48
03. Cameraman 03:20
04. News Channel 6 00:45
05. Head Cage 02:28
06. Sound Walker 11:09
******************************
Total playing time: 25:15

(IMG:https://metalarea.org/images/myspace.png)


(IMG:https://metalarea.org/images/youtube.png)

Technical info
(IMG:https://metalarea.org/images/spectrogram/2020_Aug/54617f50d3128a56a2389e1b2b496f7d.png)
Input File: 2. The Cavalry.mp3
Channels : 2
Sample Rate : 44100
Precision : 16-bit
Duration : 00:00:00.23 = 10055 samples = 17.1003 CDDA sectors
File Size : 9.19M
Bit Rate : 322M
Sample Encoding: MPEG audio (layer I, II or III)
Comments :
Title=The Cavalry
Artist=Pig Destroyer
Album=The Octagonal Stairway
Tracknumber=2
Year=2020
Genre=Grindcore
Discnumber=1



Register


Go to the top of the page
  Insert nick Quick quote
+Quote Post
 
Start new topic
Replies (1 - 9)
post Aug 28 2020, 09:54:08
Post #2

Восемь Литров
********
Group: Металариец
Posts: 880
Releases: 1
From: APATIN, SERBIA, АПАТИН, СЕРБИЯ
On Forums: 13 years 4 months
Thanks: 1818 time(s)



Flac

Register


Go to the top of the page
  Insert nick Quick quote
+Quote Post
post Aug 28 2020, 12:24:23
Post #3

Ледоруб
**************
Group: Металариец
Posts: 27,425
Releases: 0
From: Санкт-Петербург
On Forums: 11 years 5 months
Thanks: 9874 time(s)
Russian Federation


Качаю из-за второй песни, которая оказалась очень крутой в рамках этой группы.
Go to the top of the page
  Insert nick Quick quote
+Quote Post
post Aug 28 2020, 14:48:25
Post #4

Шесть Литров
******
Group: Металариец
Posts: 542
Releases: 0
From: Нижний Новгород
On Forums: 14 years 7 months
Thanks: 217 time(s)
Russian Federation


... добавили тут и кислоты, и харша. И грайнд как-то не совсем гриндовый ... то ли с примесью трэш-кора или это из-за звука так слышится . Не, не моё.
Go to the top of the page
  Insert nick Quick quote
+Quote Post
post Aug 28 2020, 14:51:12
Post #5

Ледоруб
**************
Group: Металариец
Posts: 27,425
Releases: 0
From: Санкт-Петербург
On Forums: 11 years 5 months
Thanks: 9874 time(s)
Russian Federation


Последнюю песню под нож сразу.


Thanks:
Go to the top of the page
  Insert nick Quick quote
+Quote Post
post Aug 30 2020, 11:17:08
Post #6

Шесть Литров
******
Group: Металариец
Posts: 532
Releases: 0
On Forums: 13 years 10 months
Thanks: 396 time(s)
Russian Federation


Дико круто, что переиздали бисайды в качестве. Индустриальные темы неплохи, последняя вполне понравилась
Go to the top of the page
  Insert nick Quick quote
+Quote Post
post Sep 7 2020, 10:50:25
Post #7

Правь статус, ####!111
**************
Group: Металариец
Posts: 4,296
Releases: 17
From: Holland
On Forums: 14 years 7 months
Thanks: 1391 time(s)
Netherlands


QUOTE(6666666 @ Aug 28 2020, 23:51:12) *
Последнюю песню под нож сразу.

С радостью пустил под нож тупо вторую половину альбома. В остальном, норм такая гринда.
Go to the top of the page
  Insert nick Quick quote
+Quote Post
post Sep 7 2020, 13:21:03
Post #8

Ледоруб
**************
Group: Металариец
Posts: 27,425
Releases: 0
From: Санкт-Петербург
On Forums: 11 years 5 months
Thanks: 9874 time(s)
Russian Federation


ЦИТАТА(Metalass @ 7th September 2020 - 12:50:25) *
С радостью пустил под нож тупо вторую половину альбома.

Тоже верно, и об альбоме тоже.
Go to the top of the page
  Insert nick Quick quote
+Quote Post
post Sep 7 2020, 17:16:57
Post #9

Маньяк
**********
Group: Металариец
Posts: 1,086
Releases: 268
From: Ukraine
On Forums: 11 years 11 months
Thanks: 2322 time(s)
Ukraine


Вторая половина альбома вообще не альбом. Не знаю зачем эти треки сюда засунули.
Go to the top of the page
  Insert nick Quick quote
+Quote Post
post Feb 23 2021, 13:53:13
Post #10

Самый Тихий Час
**************
Group: Металариец
Posts: 6,349
Releases: 6
On Forums: 11 years 3 months
Thanks: 2949 time(s)
Unknown


Как то... интересность их релизов для меня по нисходящей пошла. Лучше КнигаЖога 2020 послушаю...
Go to the top of the page
  Insert nick Quick quote
+Quote Post

Reply to this topicStart new topic
2 User(s) are reading this topic (2 Guests and 0 Anonymous Users)
0 Members:

 



- Lo-Fi Version Support form
Copyrights and abuse reports form
Time is now: 27th February 2021 - 17:26:02