Welcome Guest ( Log In | Register )

> Infestatio - Unleash The End (2020), Thrash Metal
post Sep 1 2020, 06:22:31
Post #1

Правь статус, ####!111
**************
Group: Металариец
Posts: 28,174
Releases: 20563
From: Г.Харьков
On Forums: 9 years 6 months
Thanks: 418751 time(s)
Unknown


(IMG:http://metalarea.org/images/audiocovers/2020_Sep/acov_tid341178_thumb.jpg)

*Artist: Infestatio
*Album: Unleash The End
*Year: 2020
*Genre: Thrash Metal
*Country: Brazil (IMG:http://metalarea.org/forum/style_images/flags/Brazil.png)
*Format: mp3@CBR320kbps
*Size: 107MB

Tracklist:
1. Blinded
2. Mankind Demise
3. Storm Knights
4. Requiem
5. Agony
6. Jeff
7. Leeches
8. Shadowless
******************************
Total playing time: 46:01



Extended info
Rafael Neves Guitars, Vocals (2006-present)
Reginaldo Iobbi Guitars (2011-2013), Bass (2013-present)
Caio Picolotto Drums (2016-present)
Renato Jafet Guitars (2016-present)



Technical info
(IMG:http://metalarea.org/images/spectrogram/2020_Sep/e8deb5cab6d234a420ef66dfb8ed5567.png)
Input File: 04 - Requiem.mp3
Channels : 2
Sample Rate : 44100
Precision : 16-bit
Duration : 00:06:10.00 = 16316780 samples = 27749.6 CDDA sectors
File Size : 15.0M
Bit Rate : 324k
Sample Encoding: MPEG audio (layer I, II or III)
Comments :
Title=Requiem
Artist=Infestatio
Album=Unleash the End
Tracknumber=4
Year=2020



Register


Go to the top of the page
  Insert nick Quick quote
+Quote Post
 
Start new topic
Replies (1 - 2)
post Sep 1 2020, 12:20:37
Post #2

hearer & reader
**************
Group: Металариец
Posts: 9,998
Releases: 179
From: Moscow
On Forums: 14 years 2 months
Thanks: 11496 time(s)
Russian Federation


https://music.yandex.ru/album/11590882
ох


Go to the top of the page
  Insert nick Quick quote
+Quote Post
post Sep 3 2020, 18:15:52
Post #3

Маньяк
**********
Group: Металариец
Posts: 1,413
Releases: 5
From: Нью-Васюки
On Forums: 15 years 6 months
Thanks: 422 time(s)
Russian Federation


Несусветная параша


Thanks:
Go to the top of the page
  Insert nick Quick quote
+Quote Post

Reply to this topicStart new topic
2 User(s) are reading this topic (2 Guests and 0 Anonymous Users)
0 Members:

 



- Lo-Fi Version Support form
Copyrights and abuse reports form
Time is now: 4th December 2021 - 11:44:24