Welcome Guest ( Log In | Register )

> Releases Upload / Добавление релизов

Добавить релиз тут / Click here to add release
Рекомендованные обменники / Recommended file shares

> Revenge - Trust In Metal (2020), Heavy/Speed Metal (D)
post Sep 3 2020, 20:46:08
Post #1

Правь статус, ####!111
**************
Group: Металариец
Posts: 23,484
Releases: 16422
From: Г.Харьков
On Forums: 8 years 5 months
Thanks: 309297 time(s)
Unknown


(IMG:http://metalarea.org/images/audiocovers/2020_Sep/acov_tid341272_thumb.jpg)

*Artist: Revenge
*Album: Trust In Metal
*Year: 2020
*Genre: Heavy/Speed Metal
*Country: Colombia (IMG:http://metalarea.org/forum/style_images/flags/Colombia.png)
*Format: mp3@CBR320kbps
*Size: 77MB

Tracklist:
1. True Metal 04:47
2. Fight, Wild & Ride 04:53
3. Hellish Hammer 04:14
4. Hard Ride - Black Sign 04:03
5. March of Vengeance 02:44
6. Fuel to the Fire 04:46
7. Iron Side 03:06
8. Black Rites 04:43
******************************
Total playing time: 33:16




Extended info
Hellfire Vocals, Guitars
Hell Avenger Drums
Night Crawler Guitars (lead)
Harder Bass



Technical info
(IMG:http://metalarea.org/images/spectrogram/2020_Sep/7488894982c67470924db4ea8e3a07c9.png)
Input File: 06 - Fuel to the Fire.mp3
Channels : 2
Sample Rate : 44100
Precision : 16-bit
Duration : 00:04:46.35 = 12627903 samples = 21476 CDDA sectors
File Size : 11.5M
Bit Rate : 322k
Sample Encoding: MPEG audio (layer I, II or III)
Comments :
Title=Fuel to the Fire
Artist=Revenge
Album=Trust In Metal
Tracknumber=6
Year=2020-09-01
Genre=Metal
Discnumber=1



Register


Go to the top of the page
  Insert nick Quick quote
+Quote Post
 
Start new topic
Replies (1 - 6)
post Sep 4 2020, 09:03:55
Post #2

Два Литра
**
Group: Завсегдатай
Posts: 184
Releases: 0
From: Москва
On Forums: 13 years 11 months
Thanks: 47 time(s)
Russian Federation


Неудачная попытка слабать псевдотрэш, на этот раз колумбийцы промахнулись.
Go to the top of the page
  Insert nick Quick quote
+Quote Post
post Sep 4 2020, 09:41:35
Post #3

melofags sniper
**************
Group: Металариец
Posts: 5,672
Releases: 0
On Forums: 12 years 7 months
Thanks: 5315 time(s)
Unknown


(IMG:style_emoticons/default/1488.gif)


Thanks:
Go to the top of the page
  Insert nick Quick quote
+Quote Post
post Sep 4 2020, 20:57:27
Post #4

Правь статус, ####!111
**************
Group: Металариец
Posts: 47,414
Releases: 743
On Forums: 11 years 4 months
Thanks: 40533 time(s)
Russian Federation


Эти дикари всегда раньше выдавали отменный материал - сырой, злой, башкотрясный. (IMG:style_emoticons/default/25.gif)

Этот релиз не должен быть исключением)


Thanks:
Go to the top of the page
  Insert nick Quick quote
+Quote Post
post Sep 4 2020, 23:13:08
Post #5

Правь статус, ####!111
**************
Group: Металариец
Posts: 23,484
Releases: 16422
From: Г.Харьков
On Forums: 8 years 5 months
Thanks: 309297 time(s)
Unknown


ЦИТАТА(vosmidesijatye @ 4th September 2020 - 20:57:27) *
выдавали отменный материал - сырой, злой, башкотрясный.

он такой и есть))
Go to the top of the page
  Insert nick Quick quote
+Quote Post
post Sep 5 2020, 08:15:18
Post #6

hearer & reader
**************
Group: Металариец
Posts: 9,093
Releases: 158
From: Moscow
On Forums: 13 years 1 month
Thanks: 9625 time(s)
Russian Federation


ЦИТАТА(Сварог Барг @ Sep 4 2020, 11:03:55) *
Неудачная попытка слабать псевдотрэш, на этот раз колумбийцы промахнулись.

Чушь собачья, спидняк тут, как и раньше.


Thanks:
Go to the top of the page
  Insert nick Quick quote
+Quote Post
post Sep 16 2020, 12:11:01
Post #7

Два Литра
**
Group: Завсегдатай
Posts: 184
Releases: 0
From: Москва
On Forums: 13 years 11 months
Thanks: 47 time(s)
Russian Federation


Сам ты чушь. Сколько людей - столько и мнений.
Go to the top of the page
  Insert nick Quick quote
+Quote Post

Reply to this topicStart new topic
1 User(s) are reading this topic (1 Guests and 0 Anonymous Users)
0 Members:

 



- Lo-Fi Version Support form
Copyrights and abuse reports form
Time is now: 23rd October 2020 - 09:18:16