Welcome Guest ( Log In | Register )

> Carillon - Absent Presence [ep] (2019), Heavy/Speed/Progressive Metal (D5)
post Sep 4 2020, 09:29:56
Post #1

Join my religion, or die
**************
Group: Металариец
Posts: 10,855
Releases: 1583
From: Питера
On Forums: 11 years 2 months
Thanks: 20737 time(s)
Russian Federation


(IMG:https://metalarea.org/images/audiocovers/2020_Sep/acov_tid341284_thumb.jpg)

*Artist: Carillon
*Album: Absent Presence [ep]
*Year: 2019
*Genre: Heavy/Speed/Progressive Metal
*Country: Argentina (IMG:https://metalarea.org/forum/style_images/flags/Argentina.png)
*Format: mp3@CBR320kbps
*Size: 60MB

Tracklist:
01. Absent Presence 10:49
02. Tango Sadness (Part I) 04:14
03. Tango Sadness (Part II) 02:36
04. Siren Song 08:14
******************************
Total playing time: 25:53

(IMG:https://metalarea.org/images/youtube.png)

Technical info
(IMG:https://metalarea.org/images/spectrogram/2020_Sep/65546d94e0c0da9a6e6a7ed8d88660ab.png)
Input File: 04 Siren Song.mp3
Channels : 2
Sample Rate : 44100
Precision : 16-bit
Duration : 00:08:15.05 = 21831749 samples = 37128.8 CDDA sectors
File Size : 19.9M
Bit Rate : 322k
Sample Encoding: MPEG audio (layer I, II or III)
Comments :
Title=Siren Song
Artist=Carillon
Album=2019 Absent Presence
Tracknumber=04/04
Year=2019
Genre=Heavy/Speed/Progressive Metal



Register


Go to the top of the page
  Insert nick Quick quote
+Quote Post
 
Start new topic
Replies (1 - 2)
post Sep 7 2020, 18:51:43
Post #2

Четыре Литра
****
Group: Металариец
Posts: 381
Releases: 0
From: Сибирь
On Forums: 9 years 8 months
Thanks: 121 time(s)
Russian Federation


Go to the top of the page
  Insert nick Quick quote
+Quote Post
post Sep 15 2020, 05:42:55
Post #3

Маньяк
**********
Group: Металариец
Posts: 1,395
Releases: 5
From: Нью-Васюки
On Forums: 14 years 6 months
Thanks: 412 time(s)
Russian Federation


Классная музыка , но файлопомойка паршивая.
Go to the top of the page
  Insert nick Quick quote
+Quote Post

Reply to this topicStart new topic
1 User(s) are reading this topic (1 Guests and 0 Anonymous Users)
0 Members:

 



- Lo-Fi Version Support form
Copyrights and abuse reports form
Time is now: 28th November 2020 - 03:44:16