Welcome Guest ( Log In | Register )

> Karg - Resilienz [ep] (2020), Post-Black Metal (D)
post Sep 5 2020, 07:27:32
Post #1

Три Литра
***
Group: Завсегдатай
Posts: 279
Releases: 95
On Forums: 11 years 1 month
Thanks: 3716 time(s)
Unknown


(IMG:http://metalarea.org/images/audiocovers/2020_Sep/acov_tid341308_thumb.jpg)

*Artist: Karg
*Album: Resilienz [ep]
*Year: 2020
*Genre: Post-Black Metal
*Country: Austria (IMG:http://metalarea.org/forum/style_images/flags/Austria.png)
*Format: mp3@CBR320kbps
*Size: 81MB

Tracklist:
1. Abbitte 14:44
2. Lorazepam 20:26
******************************
Total playing time: 35:10



Extended info
Exclusive for Metalarea.org - My own purchase


Technical info
(IMG:http://metalarea.org/images/spectrogram/2020_Sep/495254ec8939a1a4f1cf6d75a31bcb64.png)
Input File: Karg - Resilienz - 01 Abbitte.mp3
Channels : 2
Sample Rate : 44100
Precision : 16-bit
Duration : 00:14:44.11 = 38989295 samples = 66308.3 CDDA sectors
File Size : 35.5M
Bit Rate : 321k
Sample Encoding: MPEG audio (layer I, II or III)
Comments :
Title=Abbitte
Artist=Karg
Album=Resilienz
Tracknumber=1
Year=2020



Register


Go to the top of the page
  Insert nick Quick quote
+Quote Post
 
Start new topic
Replies (1 - 2)
post Sep 6 2020, 20:36:05
Post #2

Group: Дух
Posts: 3
Releases: 0
On Forums: 3 years 4 months
Thanks: 0 time(s)
Unknown


Thank you very much
Go to the top of the page
  Insert nick Quick quote
+Quote Post
post Oct 11 2020, 16:49:31
Post #3

Ретроград
**************
Group: Металариец
Posts: 5,168
Releases: 202
On Forums: 13 years 7 months
Thanks: 8191 time(s)
Vatican City


В топку такой Карг
Go to the top of the page
  Insert nick Quick quote
+Quote Post

Reply to this topicStart new topic
1 User(s) are reading this topic (1 Guests and 0 Anonymous Users)
0 Members:

 



- Lo-Fi Version Support form
Copyrights and abuse reports form
Time is now: 18th January 2021 - 05:41:07