Welcome Guest ( Log In | Register )

> Releases Upload / Добавление релизов

Добавить релиз тут / Click here to add release
Рекомендованные обменники / Recommended file shares

> Martwa Aura - Morbus Animus (2020), Black Metal (D5)
post Sep 5 2020, 23:04:53
Post #1

Правь статус, ####!111
**************
Group: Металариец
Posts: 4,681
Releases: 1380
From: Brazil
On Forums: 8 years 8 months
Thanks: 51122 time(s)
Brazil


(IMG:https://metalarea.org/images/audiocovers/2020_Sep/acov_tid341345_thumb.jpg)

*Artist: Martwa Aura
*Album: Morbus Animus
*Year: 2020
*Genre: Black Metal
*Country: Poland (IMG:https://metalarea.org/forum/style_images/flags/Poland.png)
*Format: mp3@CBR320kbps
*Size: 80MB

Tracklist:
1. Morbus Animus I 08:47
2. Morbus Animus III 06:33
3. Ślepowidzenie 05:59
4. Święta zagłada 06:11
5. Ostatnia gwiazda 07:13
******************************
Total playing time: 34:43



Extended info
Under the Sign of Garazel Productions


Technical info
(IMG:https://metalarea.org/images/spectrogram/2020_Sep/c0e6045f065f44b37fae0ebf7b077f9c.png)
Input File: 03 Ślepowidzenie.mp3
Channels : 2
Sample Rate : 44100
Precision : 16-bit
Duration : 00:05:59.07 = 15835075 samples = 26930.4 CDDA sectors
File Size : 14.4M
Bit Rate : 322k
Sample Encoding: MPEG audio (layer I, II or III)
Comments :
Title=Ślepowidzenie
Artist=Martwa Aura
Album=Morbus Animus
Tracknumber=3
Year=2020



Register


Go to the top of the page
  Insert nick Quick quote
+Quote Post
 
Start new topic
Replies (1 - 1)
post Sep 21 2020, 10:08:09
Post #2

Два Литра
**
Group: Завсегдатай
Posts: 126
Releases: 0
From: GREAT TARTARIA
On Forums: 7 years 1 month
Thanks: 20 time(s)
Unknown


lestllk, и на сей раз блгдрн`Ъ!
Go to the top of the page
  Insert nick Quick quote
+Quote Post

Reply to this topicStart new topic
1 User(s) are reading this topic (1 Guests and 0 Anonymous Users)
0 Members:

 



- Lo-Fi Version Support form
Copyrights and abuse reports form
Time is now: 29th October 2020 - 16:56:51