Welcome Guest ( Log In | Register )

> Releases Upload / Добавление релизов

Добавить релиз тут / Click here to add release
Рекомендованные обменники / Recommended file shares

> Equilibrium - One Folk [single] (2020), Folk Metal (D)
post Sep 7 2020, 10:43:14
Post #1

Правь статус, ####!111
**************
Group: Металариец
Posts: 2,531
Releases: 41
From: Nakhodka
On Forums: 10 years 4 months
Thanks: 2365 time(s)
Russian Federation


(IMG:https://metalarea.org/images/audiocovers/2020_Sep/acov_tid341385_thumb.jpeg)

*Artist: Equilibrium
*Album: One Folk [single]
*Year: 2020
*Genre: Folk Metal
*Country: Germany (IMG:https://metalarea.org/forum/style_images/flags/Germany.png)
*Format: mp3@CBR320kbps
*Size: 11MB

Tracklist:
1. One Folk
******************************
Total playing time: 4:37




Technical info
(IMG:https://metalarea.org/images/spectrogram/2020_Sep/d2f44d49529e062c52499f0f9ddcb2b2.png)
Input File: 01 One Folk.mp3
Channels : 2
Sample Rate : 44100
Precision : 16-bit
Duration : 00:04:37.49 = 12237353 samples = 20811.8 CDDA sectors
File Size : 11.1M
Bit Rate : 320k
Sample Encoding: MPEG audio (layer I, II or III)
Comments :
Title=One Folk
Artist=Equilibrium
Album=One Folk (Single)
Tracknumber=01
Year=2020
Genre=9



Register


Go to the top of the page
  Insert nick Quick quote
+Quote Post
 
Start new topic
Replies (1 - 3)
post Sep 8 2020, 09:56:44
Post #2

Три Литра
***
Group: Завсегдатай
Posts: 253
Releases: 20
From: Saint-Petersburg, Купчино
On Forums: 14 years 11 months
Thanks: 459 time(s)
Russian Federation


По музлу всё как обычно у Эквилибриума, т.е. за большой последний промежуток времени - неинтересно и ничем не цепляемо. Но я про другое сейчас - вот немцам кастрировали восприятие ван нэйшн у них теперь прям все! А ведь последняя инкарнация дружбы народов почила вместе с СССР, при этом "eagle cries with pride" - вообще можно в современном псевдокультурном контексте очень двояко понимать.
Go to the top of the page
  Insert nick Quick quote
+Quote Post
post Sep 8 2020, 12:11:48
Post #3

Group: Подсевший
Posts: 36
Releases: 0
On Forums: 15 years 1 week
Thanks: 6 time(s)
Russian Federation


https://youtu.be/HFTD1pkncUs
Go to the top of the page
  Insert nick Quick quote
+Quote Post
post Sep 16 2020, 08:54:04
Post #4

Ненавижу всё общественное, особенно питание, мнение и туалет.
**********
Group: Металариец
Posts: 1,117
Releases: 0
From: Sacred PetroGrind
On Forums: 12 years 7 months
Thanks: 299 time(s)
Russian Federation


ЦИТАТА(Maximvs @ Sep 8 2020, 11:56:44) *
По музлу всё как обычно у Эквилибриума, т.е. за большой последний промежуток времени - неинтересно и ничем не цепляемо. Но я про другое сейчас - вот немцам кастрировали восприятие ван нэйшн у них теперь прям все! А ведь последняя инкарнация дружбы народов почила вместе с СССР, при этом "eagle cries with pride" - вообще можно в современном псевдокультурном контексте очень двояко понимать.

Макс, кастрировали-кастрировали, да не докастрировали (IMG:style_emoticons/default/crazy.gif)


Thanks:
(1) kranger,
Go to the top of the page
  Insert nick Quick quote
+Quote Post

Reply to this topicStart new topic
1 User(s) are reading this topic (1 Guests and 0 Anonymous Users)
0 Members:

 



- Lo-Fi Version Support form
Copyrights and abuse reports form
Time is now: 21st October 2020 - 10:48:48