Welcome Guest ( Log In | Register )

> Releases Upload / Добавление релизов

Добавить релиз тут / Click here to add release
Рекомендованные обменники / Recommended file shares

> Demolizer - Thrashmageddon (2020), Old School Thrash Metal
post Sep 10 2020, 11:27:12
Post #1

Правь статус, ####!111
**************
Group: Металариец
Posts: 23,526
Releases: 16459
From: Г.Харьков
On Forums: 8 years 5 months
Thanks: 310303 time(s)
Unknown


(IMG:http://metalarea.org/images/audiocovers/2020_Sep/acov_tid341476_thumb.jpg)

*Artist: Demolizer
*Album: Thrashmageddon
*Year: 2020
*Genre: Old School Thrash Metal
*Country: Denmark (IMG:http://metalarea.org/forum/style_images/flags/Denmark.png)
*Format: mp3@CBR320kbps
*Size: 83MB

Tracklist:
1. Copenhagen Burning 05:30
2. Cancer in the Brain 03:45
3. NTC 02:42
4. Bloodshot Eyes 03:51
5. Gore 00:49
6. Until I Die 05:38
7. Lost in Torment 03:53
8. Built on Slavery 05:29
9. MSW 03:31
******************************
Total playing time: 35:08




Extended info
Bjørn Hjortgaard Bass
See also: ex-Radtskaffen
Max Petrén Bach Hansen Drums
Aria Mobbarez Guitars
Ben Radtleff Guitars, Vocals
See also: ex-Radtskaffen



Technical info
(IMG:http://metalarea.org/images/spectrogram/2020_Sep/48a8490d8a9ac2f11aab7b1ef719f925.png)
Input File: 06 - Until the day i die.mp3
Channels : 2
Sample Rate : 44100
Precision : 16-bit
Duration : 00:05:37.00 = 14861700 samples = 25275 CDDA sectors
File Size : 13.8M
Bit Rate : 327k
Sample Encoding: MPEG audio (layer I, II or III)
Comments :
Title=Until the day i die
Artist=Demolizer
Album=Thrashmageddon
Tracknumber=6
Year=2020
Discnumber=1



Register


Go to the top of the page
  Insert nick Quick quote
+Quote Post
 
Start new topic
Replies (1 - 5)
post Sep 11 2020, 03:16:27
Post #2

Правь статус, ####!111
**************
Group: Металариец
Posts: 23,526
Releases: 16459
From: Г.Харьков
On Forums: 8 years 5 months
Thanks: 310303 time(s)
Unknown


FLAC (Tracks) 252 mb
Register


Go to the top of the page
  Insert nick Quick quote
+Quote Post
post Sep 12 2020, 14:00:48
Post #3

Пять Литров
*****
Group: Металариец
Posts: 433
Releases: 0
From: германия
On Forums: 11 years 10 months
Thanks: 162 time(s)
Russian Federation


круто нарезают ! трешь отличный


Thanks:
Go to the top of the page
  Insert nick Quick quote
+Quote Post
post Sep 12 2020, 20:42:24
Post #4

Семь Литров
*******
Group: Металариец
Posts: 708
Releases: 0
From: Одесса-мама
On Forums: 11 years 9 months
Thanks: 244 time(s)
Ukraine


Спасибо!
(IMG:style_emoticons/default/metaler.gif) (IMG:style_emoticons/default/metaler.gif) (IMG:style_emoticons/default/metaler.gif)


Thanks:
Go to the top of the page
  Insert nick Quick quote
+Quote Post
post Sep 12 2020, 23:06:12
Post #5

Dr.
**************
Group: Металариец
Posts: 5,327
Releases: 0
From: Primorye.ru
On Forums: 9 years 7 months
Thanks: 1103 time(s)
Russian Federation


I've been listening for several days and this album is more interesting than Mosh-Pit Justice and Messiah


Thanks:
Go to the top of the page
  Insert nick Quick quote
+Quote Post
post Oct 7 2020, 10:18:53
Post #6

Zero Tolerance
****
Group: Металариец
Posts: 300
Releases: 0
On Forums: 8 years 1 month
Thanks: 50 time(s)
Unknown


Отбитых прокачает этот трэшак. Мне хватило раза.
Go to the top of the page
  Insert nick Quick quote
+Quote Post

Reply to this topicStart new topic
1 User(s) are reading this topic (1 Guests and 0 Anonymous Users)
0 Members:

 



- Lo-Fi Version Support form
Copyrights and abuse reports form
Time is now: 26th October 2020 - 20:58:20