Welcome Guest ( Log In | Register )

> Void Rot - Descending Pillars (2020), Death/Doom Metal
post Sep 10 2020, 11:44:26
Post #1

Правь статус, ####!111
**************
Group: Металариец
Posts: 25,773
Releases: 18452
From: Г.Харьков
On Forums: 8 years 11 months
Thanks: 364207 time(s)
Unknown


(IMG:http://metalarea.org/images/audiocovers/2020_Sep/acov_tid341478_thumb.jpg)

*Artist: Void Rot
*Album: Descending Pillars
*Year: 2020
*Genre: Death/Doom Metal
*Country: United States (IMG:http://metalarea.org/forum/style_images/flags/United%20States.png)
*Format: mp3@CBR320kbps
*Size: 86MB

Tracklist:
1. Descending Pillars 08:33
2. Upheaval 03:30
3. Liminal Forms 06:31
4. Delusions of Flesh 06:04
5. Inversion 05:02
6. The Weight of a Thousand Suns 01:09
7. Monolith (Descending Pillars, Pt. II) 06:51
******************************
Total playing time: 37:40




Extended info
Craig Clemons Bass
Will Bell Drums
Kent Sklarow Guitars
John Hancock Guitars, Vocals


Technical info
(IMG:http://metalarea.org/images/spectrogram/2020_Sep/62640d925b32dc26f6fb9994037e4c9b.png)
Input File: 03. Liminal Forms.mp3
Channels : 2
Sample Rate : 44100
Precision : 16-bit
Duration : 00:00:00.39 = 17199 samples = 29.25 CDDA sectors
File Size : 15.7M
Bit Rate : 322M
Sample Encoding: MPEG audio (layer I, II or III)
Comments :
Title=Liminal Forms
Artist=Void Rot
Album=Descending Pillars
Tracknumber=3
Year=2020
Genre=Doom Metal
Discnumber=1



Register


Go to the top of the page
  Insert nick Quick quote
+Quote Post
 
Start new topic
Replies (1 - 5)
post Sep 10 2020, 20:23:32
Post #2

Правь статус, ####!111
**************
Group: Металариец
Posts: 25,773
Releases: 18452
From: Г.Харьков
On Forums: 8 years 11 months
Thanks: 364207 time(s)
Unknown


FLAC (Tracks) 233 mb
Register


Go to the top of the page
  Insert nick Quick quote
+Quote Post
post Sep 10 2020, 21:52:48
Post #3

Три Литра
***
Group: Завсегдатай
Posts: 253
Releases: 0
On Forums: 3 years 2 months
Thanks: 98 time(s)
Belarus


Хороший качественный звук и прекрасный вокал не вытаскивают. В помойку.
Go to the top of the page
  Insert nick Quick quote
+Quote Post
post Sep 11 2020, 04:22:34
Post #4

Шесть Литров
******
Group: Металариец
Posts: 608
Releases: 1
From: АР Крым, Симферополь
On Forums: 13 years 2 weeks
Thanks: 309 time(s)
Russian Federation


Вообще отлично, больше пещерного обскьюрного дэза чем дума, что несомненно радует! Альбом ждал, не разочаровали хлопцы! Зачёт, 5/5! (IMG:style_emoticons/default/m0114.gif) (IMG:style_emoticons/default/m0114.gif) (IMG:style_emoticons/default/m0114.gif)
(IMG:style_emoticons/default/20.gif) (IMG:style_emoticons/default/h27001.gif) (IMG:style_emoticons/default/m1234.gif) (IMG:style_emoticons/default/metaler.gif)


Go to the top of the page
  Insert nick Quick quote
+Quote Post
post Sep 11 2020, 08:24:40
Post #5

Туфлєблек то є файно
**************
Group: Металариец
Posts: 2,354
Releases: 0
From: Україна
On Forums: 12 years 3 months
Thanks: 1831 time(s)
Ukraine


Ооо, а вот и медлячки.
Для любителей Криптс и ещё кучи всяких мрачных умиротворцев.
Приятный такой бурдозил, ну или раскатик.
Фамилия вокалиста Hancock Guitars, Vocals, мгновенно меня навела на ассоциацию с Побегом из Щоушенка, Fort Hancock, там где Энди пересёк границу когда выбрался на волю.
Хорошо заходит альбом, гроул жир, медляки кайф, атмосфера гуд.
Я доволен.
А релизёру (IMG:style_emoticons/default/metaler.gif) (IMG:style_emoticons/default/pray.gif) (IMG:style_emoticons/default/smile3.gif)


Go to the top of the page
  Insert nick Quick quote
+Quote Post
post Oct 6 2020, 22:19:28
Post #6

Правь статус, ####!111
**************
Group: Металариец
Posts: 4,331
Releases: 17
From: Holland
On Forums: 14 years 9 months
Thanks: 1405 time(s)
Netherlands


QUOTE(GRAF @ Sep 11 2020, 06:52:48) *
Хороший качественный звук и прекрасный вокал не вытаскивают. В помойку.

Вроде совсем не твоя музыка. В сущности это медленный медитативный дэт. Это сродни, если бы я рассуждал на тему каких-нить альбомов в стиле Groove/Detah, может там крутые релизы, но в рамках жанра, а мне жанр не по вкусу.

Альбом все же в целом чуть выше среднего. Слушал три раза и так глубоко и не проникся. Формально все хорошо (ну так, в стиле Krypts да Spectral Voice), но так и не зашло.
Go to the top of the page
  Insert nick Quick quote
+Quote Post

Reply to this topicStart new topic
2 User(s) are reading this topic (2 Guests and 0 Anonymous Users)
0 Members:

 



- Lo-Fi Version Support form
Copyrights and abuse reports form
Time is now: 18th April 2021 - 00:20:22