Welcome Guest ( Log In | Register )

> Releases Upload / Добавление релизов

Добавить релиз тут / Click here to add release
Рекомендованные обменники / Recommended file shares

> Assault Forces - Entrance Of The Violence [ep] (2019), Thrash/Death Metal
post Sep 12 2020, 17:23:56
Post #1

Правь статус, ####!111
**************
Group: Металариец
Posts: 23,484
Releases: 16422
From: Г.Харьков
On Forums: 8 years 5 months
Thanks: 309298 time(s)
Unknown


(IMG:http://metalarea.org/images/audiocovers/2020_Sep/acov_tid341567_thumb.jpg)

*Artist: Assault Forces
*Album: Entrance Of The Violence [ep]
*Year: 2019
*Genre: Thrash/Death Metal
*Country: Mexico (IMG:http://metalarea.org/forum/style_images/flags/Mexico.png)
*Format: mp3@CBR320kbps
*Size: 38MB

Tracklist:
1. Entrance of the Violence 03:29
2. The Beast Is Coming 03:25
3. Massive Destruction 02:40
4. Repulsive World 06:55
******************************
Total playing time: 16:29




Extended info
Agustin Muñoz Bass, Vocals (backing)
Carlos Rivera Guitars (lead)
Samuel Alvarado Guitars (rhythm)
Irving Salazar Vocals


Technical info
(IMG:http://metalarea.org/images/spectrogram/2020_Sep/d387a41b25d1512b47e423c297d037de.png)
Input File: 04 - Repulsive World.mp3
Channels : 2
Sample Rate : 44100
Precision : 16-bit
Duration : 00:06:55.69 = 18331753 samples = 31176.5 CDDA sectors
File Size : 16.7M
Bit Rate : 321k
Sample Encoding: MPEG audio (layer I, II or III)
Comments :
Title=Repulsive World
Artist=Assault Forces
Album=Entrance Of The Violence
Tracknumber=4
Year=2020-06-29
Genre=Rock / Metal
Discnumber=1



Register


Go to the top of the page
  Insert nick Quick quote
+Quote Post
 
Start new topic
Replies (1 - 1)
post Sep 16 2020, 09:12:14
Post #2

Zero Tolerance
***
Group: Завсегдатай
Posts: 287
Releases: 0
On Forums: 8 years 1 month
Thanks: 42 time(s)
Unknown


Быстроиграющий, но от этого не менее содержательный боевичек от мексикосов.
Go to the top of the page
  Insert nick Quick quote
+Quote Post

Reply to this topicStart new topic
1 User(s) are reading this topic (1 Guests and 0 Anonymous Users)
0 Members:

 



- Lo-Fi Version Support form
Copyrights and abuse reports form
Time is now: 23rd October 2020 - 09:30:42