Welcome Guest ( Log In | Register )

> Releases Upload / Добавление релизов

Добавить релиз тут / Click here to add release
Рекомендованные обменники / Recommended file shares

 
Reply to this topicStart new topic
> Deathheim - In The Sign Of Evil [ep] (2020), Melodic Death Metal
post Sep 14 2020, 01:46:59
Post #1

Правь статус, ####!111
**************
Group: Металариец
Posts: 23,564
Releases: 16492
From: Г.Харьков
On Forums: 8 years 5 months
Thanks: 311105 time(s)
Unknown


(IMG:http://metalarea.org/images/audiocovers/2020_Sep/acov_tid341594_thumb.jpg)

*Artist: Deathheim
*Album: In The Sign Of Evil [ep]
*Year: 2020
*Genre: Melodic Death Metal
*Country: Sweden (IMG:http://metalarea.org/forum/style_images/flags/Sweden.png)
*Format: mp3@CBR320kbps
*Size: 55MB

Tracklist:
1. Bringer of Death 05:23
2. Sacrificed 04:14
3. Devoured by Children 04:09
4. Abaddon 05:26
5. In the Sign of Evil 04:40
******************************
Total playing time: 23:52



Extended info
Robin Wikström Bass
Marco Mikkola Drums
Rasmus Uhlin Guitars (lead)
Tim Gulliksson Lager Guitars (rhythm), Vocals (backing)
Simon Lindgren Vocals (lead)



Technical info
(IMG:http://metalarea.org/images/spectrogram/2020_Sep/3b51846cfaa0200ffa1f6b86ee626719.png)
Input File: 04 - Abaddon.mp3
Channels : 2
Sample Rate : 44100
Precision : 16-bit
Duration : 00:05:26.24 = 14387096 samples = 24467.9 CDDA sectors
File Size : 13.1M
Bit Rate : 321k
Sample Encoding: MPEG audio (layer I, II or III)
Comments :
Title=Abaddon
Artist=Deathheim
Album=In the Sign of Evil
Tracknumber=4
Year=2020-08-14
Genre=Rock / Metal
Discnumber=1



Register


Go to the top of the page
  Insert nick Quick quote
+Quote Post

Reply to this topicStart new topic
1 User(s) are reading this topic (1 Guests and 0 Anonymous Users)
0 Members:

 



- Lo-Fi Version Support form
Copyrights and abuse reports form
Time is now: 29th October 2020 - 17:01:22