Welcome Guest ( Log In | Register )

> Releases Upload / Добавление релизов

Добавить релиз тут / Click here to add release
Рекомендованные обменники / Recommended file shares

> Bleeding Torment - Obscure Remains Of Rot (2020), Old School Death Metal
post Sep 14 2020, 04:11:08
Post #1

Правь статус, ####!111
**************
Group: Металариец
Posts: 23,450
Releases: 16401
From: Г.Харьков
On Forums: 8 years 5 months
Thanks: 308743 time(s)
Unknown


(IMG:http://metalarea.org/images/audiocovers/2020_Sep/acov_tid341595_thumb.jpg)

*Artist: Bleeding Torment
*Album: Obscure Remains Of Rot
*Year: 2020
*Genre: Old School Death Metal
*Country: Ecuador (IMG:http://metalarea.org/forum/style_images/flags/Ecuador.png)
*Format: mp3@CBR320kbps
*Size: 59MB

Tracklist:
1. Social Decline 02:19
2. Final Genocide 03:06
3. Ars Goetia of Doom 03:51
4. Grace of Mutilation 02:54
5. Swamped Necrosphere 03:20
6. Sinister Stench 02:51
7. Obscure Remains of Rot 02:58
8. Chainsaw Caress 04:28
******************************
Total playing time: 25:47




Extended info
Esarertu Serdna Bass, Drum programming, Guitars
See also: Angel Negro, Baphomet's Hammer, Claustrofilia, Derecho a la Muerte, Trimegistö, ex-Hemocromatosis Genital, Disbrigade, Gale, ex-Gorephagia
Renrak Nomis Vocals


Technical info
(IMG:http://metalarea.org/images/spectrogram/2020_Sep/f8caa78b280a540f4a8b665e747bdd87.png)
Input File: 05. Swamped Necrosphere.mp3
Channels : 2
Sample Rate : 44100
Precision : 16-bit
Duration : 00:03:20.39 = 8837243 samples = 15029.3 CDDA sectors
File Size : 8.02M
Bit Rate : 320k
Sample Encoding: MPEG audio (layer I, II or III)
Comments :
Title=Swamped Necrosphere
Artist=Bleeding Torment
Album=Obscure Remains of Rot
Tracknumber=05
Year=2020
Genre=Death



Register


Go to the top of the page
  Insert nick Quick quote
+Quote Post
 
Start new topic
Replies (1 - 2)
post Sep 14 2020, 10:36:57
Post #2

Семь Литров
*******
Group: Металариец
Posts: 743
Releases: 1
From: APATIN, SERBIA, АПАТИН, СЕРБИЯ
On Forums: 12 years 11 months
Thanks: 1368 time(s)



Flac

Register


Thanks:
Go to the top of the page
  Insert nick Quick quote
+Quote Post
post Sep 14 2020, 18:19:13
Post #3

Маньяк
**********
Group: Металариец
Posts: 1,078
Releases: 268
From: Ukraine
On Forums: 11 years 7 months
Thanks: 2316 time(s)
Ukraine


Очень похоже на шведов. Вокалу немного потренироваться бы в скриме, особенно в переходах с гроула. А так в основном зачёт!
Go to the top of the page
  Insert nick Quick quote
+Quote Post

Reply to this topicStart new topic
1 User(s) are reading this topic (1 Guests and 0 Anonymous Users)
0 Members:

 



- Lo-Fi Version Support form
Copyrights and abuse reports form
Time is now: 20th October 2020 - 18:56:06