Welcome Guest ( Log In | Register )

> Releases Upload / Добавление релизов

Добавить релиз тут / Click here to add release
Рекомендованные обменники / Recommended file shares

 
Reply to this topicStart new topic
> Sargent - The Upcoming Attack [ep] (2020), Thrash/Death Metal
post Sep 14 2020, 04:41:51
Post #1

Правь статус, ####!111
**************
Group: Металариец
Posts: 23,132
Releases: 16138
From: Г.Харьков
On Forums: 8 years 4 months
Thanks: 299970 time(s)
Unknown


(IMG:http://metalarea.org/images/audiocovers/2020_Sep/acov_tid341596_thumb.jpg)

*Artist: Sargent
*Album: The Upcoming Attack [ep]
*Year: 2020
*Genre: Thrash/Death Metal
*Country: Mexico (IMG:http://metalarea.org/forum/style_images/flags/Mexico.png)
*Format: mp3@CBR320kbps
*Size: 47MB

Tracklist:
1. Killing with Missiles 03:34
2. Apocalyptic Assault 03:44
3. Eternal Slaughter 02:42
4. Livor Mortis 03:11
5. Cruelty Disorder 03:11
6. Merciless War 04:32
******************************
Total playing time: 20:54



Extended info
Harry Gómez Drums (2017-present)
See also: Karroña
Marvin Reyes Guitars (2017-present)
See also: Karroña
Randall Orlandoff Guitars, Vocals (2017-present)
Edu Chavarría Bass (2019-present)


Technical info
(IMG:http://metalarea.org/images/spectrogram/2020_Sep/980c804b908cda2e9ca2da59f54cb7c2.png)
Input File: 06 - Merciless War.mp3
Channels : 2
Sample Rate : 44100
Precision : 16-bit
Duration : 00:04:32.24 = 12005784 samples = 20418 CDDA sectors
File Size : 10.9M
Bit Rate : 321k
Sample Encoding: MPEG audio (layer I, II or III)
Comments :
Title=Merciless War
Artist=Sargent
Album=The Upcoming Attack
Tracknumber=6
Year=2020-08-02
Genre=Alternative / Indie Rock / Metal
Discnumber=1



Register


Go to the top of the page
  Insert nick Quick quote
+Quote Post

Reply to this topicStart new topic
1 User(s) are reading this topic (1 Guests and 0 Anonymous Users)
0 Members:

 



- Lo-Fi Version Support form
Copyrights and abuse reports form
Time is now: 19th September 2020 - 03:20:12