Welcome Guest ( Log In | Register )

> Releases Upload / Добавление релизов

Добавить релиз тут / Click here to add release
Рекомендованные обменники / Recommended file shares

 
Reply to this topicStart new topic
> Cropsy Maniac - Cult Of Cropsy (2020), Death Metal/Grindcore
post Sep 14 2020, 05:00:54
Post #1

Правь статус, ####!111
**************
Group: Металариец
Posts: 23,484
Releases: 16422
From: Г.Харьков
On Forums: 8 years 5 months
Thanks: 309297 time(s)
Unknown


(IMG:http://metalarea.org/images/audiocovers/2020_Sep/acov_tid341597_thumb.jpg)

*Artist: Cropsy Maniac
*Album: Cult Of Cropsy
*Year: 2020
*Genre: Death Metal/Grindcore
*Country: United States (IMG:http://metalarea.org/forum/style_images/flags/United%20States.png)
*Format: mp3@CBR320kbps
*Size: 119MB

Tracklist:
1. Black Mass (Intro)
2. Race with the Devil
3. Enter the Brood
4. Doom Asylum
5. Dead Heat Dead Meat
6. Black Pond
7. Cult of Cropsy
8. Death Bite
9. Carnal Violence
10. Lord of the Rats
11. Confess Dirty Priest
12. Satan's Slave
******************************
Total playing time: 34:34




Extended info
CD-Rip+scans
Travis Ruvo Drums (2013-present)
See also: Akatharta, Among the Decayed, Echelon, Goatsoldiers, To Descend, ex-Wormfood, Hellfrost and Fire, Troikadon, ex-Blood Freak
Aaron Whitsell Guitars, Bass (2013-present)
See also: Akatharta, Kam Lee
Kevin Reece Vocals, Lyrics (2013-present)
See also: Among the Decayed, Devour, Goatsoldiers, ex-Blood Freak
Jonny Pettersson Bass (2019-present)
See also: Acid Domain, Ashcloud, Berzerker Legion, Crossbow Suicide, Gods Forsaken, Heads for the Dead, Henry Kane, Human Harvest, Just Before Dawn, Nattravnen, Pale King, Skineater, Syn:drom, The Hangmans Sorrow, Ursinne, Vholdghast, Wombbath, ex-Disfigured Victims, ex-Cavevomit, Troikadon, ex-Sorghegard, ex-Ooz


Technical info
(IMG:http://metalarea.org/images/spectrogram/2020_Sep/c86a5c2d519e754dde6a68c0aeca06fa.png)
Input File: 05. Dead Heat Dead Meat.mp3
Channels : 2
Sample Rate : 44100
Precision : 16-bit
Duration : 00:03:01.64 = 8010280 samples = 13622.9 CDDA sectors
File Size : 7.27M
Bit Rate : 320k
Sample Encoding: MPEG audio (layer I, II or III)
Comments :
Title=Dead Heat Dead Meat
Artist=Cropsy Maniac
Album=Cult of Cropsy
Tracknumber=5
Year=2020



Register


Go to the top of the page
  Insert nick Quick quote
+Quote Post

Reply to this topicStart new topic
1 User(s) are reading this topic (1 Guests and 0 Anonymous Users)
0 Members:

 



- Lo-Fi Version Support form
Copyrights and abuse reports form
Time is now: 23rd October 2020 - 09:20:02