Welcome Guest ( Log In | Register )

> Releases Upload / Добавление релизов

Добавить релиз тут / Click here to add release
Рекомендованные обменники / Recommended file shares

> Headkrusher - Opprobrium (2020), Thrash Metal
post Sep 14 2020, 05:12:48
Post #1

MDM-Thrash Metal
**************
Group: Металариец
Posts: 9,850
Releases: 1048
From: Одесса
On Forums: 13 years 1 month
Thanks: 25944 time(s)
Ukraine


(IMG:http://metalarea.org/images/audiocovers/2020_Sep/acov_tid341598_thumb.jpg)

*Artist: Headkrusher
*Album: Opprobrium
*Year: 2020
*Genre: Thrash Metal
*Country: Indonesia (IMG:http://metalarea.org/forum/style_images/flags/Indonesia.png)
*Format: mp3@CBR320kbps
*Size: 72MB

Tracklist:
1. Preludium 01:30 instrumental
2. Darksome Prophet 02:59
3. Nemesis Reigns 03:38
4. The Eyes 01:52
5. Sons of Evil 02:54
6. Incineration 03:26
7. Whiskey and Misery 05:07
8. Invocation 03:09
9. Mortal Devastation 06:55
******************************
Total playing time: 31:30




Extended info
.A Guitars
See also: Exhumation (live)
.R Guitars
.D Vocals, Bass


Technical info
(IMG:http://metalarea.org/images/spectrogram/2020_Sep/cc21276ed2d3504b7f90c932d6808edd.png)
Input File: 02 Darksome Prophet.mp3
Channels : 2
Sample Rate : 44100
Precision : 16-bit
Duration : 00:02:59.50 = 7915818 samples = 13462.3 CDDA sectors
File Size : 7.43M
Bit Rate : 331k
Sample Encoding: MPEG audio (layer I, II or III)
Comments :
Title=Darksome Prophet
Artist=Headkrusher
Album=Opprobrium
Tracknumber=2/9
Year=2020



Register

Register


Go to the top of the page
  Insert nick Quick quote
+Quote Post
 
Start new topic
Replies (1 - 1)
post Sep 15 2020, 01:37:36
Post #2

\m/
Group Icon
Group: S-moderation team
Posts: 7,823
Releases: 19
From: Петропавловск-Камчатский
On Forums: 11 years 3 months
Thanks: 7700 time(s)
Russian Federation


Added links by Samaritianin
Go to the top of the page
  Insert nick Quick quote
+Quote Post

Reply to this topicStart new topic
2 User(s) are reading this topic (2 Guests and 0 Anonymous Users)
0 Members:

 



- Lo-Fi Version Support form
Copyrights and abuse reports form
Time is now: 19th September 2020 - 04:24:04