Welcome Guest ( Log In | Register )

> Releases Upload / Добавление релизов

Добавить релиз тут / Click here to add release
Рекомендованные обменники / Recommended file shares

> Headkrusher - Opprobrium (2020), Thrash Metal
post Sep 14 2020, 05:16:44
Post #1

Правь статус, ####!111
**************
Group: Металариец
Posts: 23,132
Releases: 16138
From: Г.Харьков
On Forums: 8 years 4 months
Thanks: 299979 time(s)
Unknown


(IMG:http://metalarea.org/images/audiocovers/2020_Sep/acov_tid341599_thumb.jpg)

*Artist: Headkrusher
*Album: Opprobrium
*Year: 2020
*Genre: Thrash Metal
*Country: Indonesia (IMG:http://metalarea.org/forum/style_images/flags/Indonesia.png)
*Format: mp3@CBR320kbps
*Size: 73MB

Tracklist:
1. Preludium 01:30 instrumental
2. Darksome Prophet 02:59
3. Nemesis Reigns 03:38
4. The Eyes 01:52
5. Sons of Evil 02:54
6. Incineration 03:26
7. Whiskey and Misery 05:07
8. Invocation 03:09
9. Mortal Devastation 06:55
******************************
Total playing time: 31:30




Extended info
.A Guitars
See also: Exhumation (live)
.R Guitars
.D Vocals, Bass


Technical info
(IMG:http://metalarea.org/images/spectrogram/2020_Sep/07858ac0ed74c96bc068a821d0988a5e.png)
Input File: 05 Sons of Evil.mp3
Channels : 2
Sample Rate : 44100
Precision : 16-bit
Duration : 00:02:54.09 = 7677325 samples = 13056.7 CDDA sectors
File Size : 7.22M
Bit Rate : 332k
Sample Encoding: MPEG audio (layer I, II or III)
Comments :
Title=Sons of Evil
Artist=Headkrusher
Album=Opprobrium
Tracknumber=5/9
Year=2020



Register


Go to the top of the page
  Insert nick Quick quote
+Quote Post
 
Start new topic
Replies (1 - 2)
post Sep 14 2020, 17:44:19
Post #2

Маньяк
**********
Group: Металариец
Posts: 1,076
Releases: 268
From: Ukraine
On Forums: 11 years 6 months
Thanks: 2315 time(s)
Ukraine


Как там сказал рядовой Геннадий Романович Бобков: "Полное гавно!"
Go to the top of the page
  Insert nick Quick quote
+Quote Post
post Sep 15 2020, 09:34:06
Post #3

Добрейшей души Мегаманьяк
***********
Group: Металариец
Posts: 1,691
Releases: 0
From: Bashkortostan, Өфө
On Forums: 12 years 7 months
Thanks: 782 time(s)
Russian Federation


Этот Бобков в этом вопросе совсем не шарит. Вполне себе удобоваримая мрачная околокриейторовщина середины 80ых прошлого века.


Go to the top of the page
  Insert nick Quick quote
+Quote Post

Reply to this topicStart new topic
2 User(s) are reading this topic (2 Guests and 0 Anonymous Users)
0 Members:

 



- Lo-Fi Version Support form
Copyrights and abuse reports form
Time is now: 19th September 2020 - 03:34:02