Welcome Guest ( Log In | Register )

> Releases Upload / Добавление релизов

Добавить релиз тут / Click here to add release
Рекомендованные обменники / Recommended file shares

 
Reply to this topicStart new topic
> Hilotz - Giza Ankerkeria (2016), Thrash Metal
post Sep 14 2020, 06:49:40
Post #1

Правь статус, ####!111
**************
Group: Металариец
Posts: 23,582
Releases: 16514
From: Г.Харьков
On Forums: 8 years 5 months
Thanks: 311771 time(s)
Unknown


(IMG:http://metalarea.org/images/audiocovers/2020_Sep/acov_tid341600_thumb.jpg)

*Artist: Hilotz
*Album: Giza Ankerkeria
*Year: 2016
*Genre: Thrash Metal
*Country: Spain (IMG:http://metalarea.org/forum/style_images/flags/Spain.png)
*Format: mp3@CBR320kbps
*Size: 94MB

Tracklist:
1. Barne eromena 05:47
2. Minak barnean dirau 04:43
3. Hilketa 03:51
4. Iluntasunaren esklabu 03:54
5. Ankerkeria I - Izakia 04:10
6. Ankerkeria II - Eraldaketa 05:32
7. Ankerkeria III - Arbasoak 06:54
8. Amildegian 05:55
******************************
Total playing time: 40:46




Extended info
Etxahun Urkizu Drums
Mikel Yarza Vocals, Bass
Paulo Eizmendi Guitars


Technical info
(IMG:http://metalarea.org/images/spectrogram/2020_Sep/d53914beb3ef590c78bc65d406a9a4c8.png)
Input File: 06 - Ankerkeria II - Eraldaketa.mp3
Channels : 2
Sample Rate : 44100
Precision : 16-bit
Duration : 00:05:32.30 = 14654386 samples = 24922.4 CDDA sectors
File Size : 13.3M
Bit Rate : 321k
Sample Encoding: MPEG audio (layer I, II or III)
Comments :
Title=Ankerkeria II - Eraldaketa
Artist=Hilotz
Album=Giza Ankerkeria
Tracknumber=6
Year=2016-02-17
Genre=Metal
Discnumber=1



Register


Go to the top of the page
  Insert nick Quick quote
+Quote Post

Reply to this topicStart new topic
2 User(s) are reading this topic (2 Guests and 0 Anonymous Users)
0 Members:

 



- Lo-Fi Version Support form
Copyrights and abuse reports form
Time is now: 31st October 2020 - 01:54:07