Welcome Guest ( Log In | Register )

> Releases Upload / Добавление релизов

Добавить релиз тут / Click here to add release
Рекомендованные обменники / Recommended file shares

> Iron Angel - Emerald Eyes (2020), Heavy/Speed Metal
post Sep 14 2020, 07:12:09
Post #1

Правь статус, ####!111
**************
Group: Металариец
Posts: 23,132
Releases: 16138
From: Г.Харьков
On Forums: 8 years 4 months
Thanks: 299966 time(s)
Unknown


(IMG:http://metalarea.org/images/audiocovers/2020_Sep/acov_tid341601_thumb.jpg)

*Artist: Iron Angel
*Album: Emerald Eyes
*Year: 2020
*Genre: Heavy/Speed Metal
*Country: Germany (IMG:http://metalarea.org/forum/style_images/flags/Germany.png)
*Format: mp3@CBR320kbps
*Size: 103MB

Tracklist:
1. Sacred Slaughter 04:23
2. Descend 04:06
3. Sands of Time 03:24
4. Demons 04:06
5. What We're Living For 05:33
6. Emerald Eyes 04:37
7. Fiery Winds of Death 03:31
8. Sacrificed 04:36
9. Bridges Are Burning 04:26
10. Heaven in Red 03:55
11. Dark Sorcery 03:59
******************************
Total playing time: 46:36



Extended info
Dirk Schröder Vocals
Didy Mackel Bass
Mäx Behr Drums
Robert Altenbach Guitars
Nino Helfrich Guitars


Technical info
(IMG:http://metalarea.org/images/spectrogram/2020_Sep/470922b8a386d4ff40ddfd24658a1bb7.png)
Input File: 05 - What We're Living For.mp3
Channels : 2
Sample Rate : 44100
Precision : 16-bit
Duration : 00:05:33.29 = 14698133 samples = 24996.8 CDDA sectors
File Size : 13.5M
Bit Rate : 323k
Sample Encoding: MPEG audio (layer I, II or III)
Comments :
Title=What We're Living For
Artist=Iron Angel
Album=Emerald Eyes
Tracknumber=5
Year=2020
Genre=Metal



Register


Go to the top of the page
  Insert nick Quick quote
+Quote Post
 
Start new topic
Replies (1 - 5)
post Sep 14 2020, 21:07:04
Post #2

21st Century Schizoid Man
**************
Group: Металариец
Posts: 6,583
Releases: 81
From: Moscow
On Forums: 12 years 4 months
Thanks: 5483 time(s)
Russian Federation


Фигасе нежданчик. (IMG:style_emoticons/default/crazy.gif)
Go to the top of the page
  Insert nick Quick quote
+Quote Post
post Sep 14 2020, 22:40:03
Post #3

I love Sushi
******
Group: Металариец
Posts: 662
Releases: 0
From: Vienna
On Forums: 11 years 1 month
Thanks: 143 time(s)
Austria


This band delivers...still in 2020.
Go to the top of the page
  Insert nick Quick quote
+Quote Post
post Sep 15 2020, 06:54:29
Post #4

Шесть Литров
******
Group: Металариец
Posts: 649
Releases: 5
From: Ивантеевка, Московская область
On Forums: 12 years 9 months
Thanks: 248 time(s)
Russian Federation


Как мне показалось по превью, товарищи стали напоминать Manowar.
Go to the top of the page
  Insert nick Quick quote
+Quote Post
post Sep 15 2020, 07:01:54
Post #5

Правь статус, ####!111
**************
Group: Металариец
Posts: 23,132
Releases: 16138
From: Г.Харьков
On Forums: 8 years 4 months
Thanks: 299966 time(s)
Unknown


ЦИТАТА(Ice Gnoll @ 15th September 2020 - 06:54:29) *
Как мне показалось

Только показалось..Перекрестись!)))
Go to the top of the page
  Insert nick Quick quote
+Quote Post
post Sep 15 2020, 16:58:02
Post #6

Девять Литров
*********
Group: Металариец
Posts: 914
Releases: 0
From: China
On Forums: 12 years 8 months
Thanks: 669 time(s)
Bulgaria


very similar to the previous recording, energetic classic speed metal, well done again. Schroder has lost his voice somewhere, though; he sings in the lower registers, seldom hits his earlier more expressive higher tones.


Go to the top of the page
  Insert nick Quick quote
+Quote Post

Reply to this topicStart new topic
1 User(s) are reading this topic (1 Guests and 0 Anonymous Users)
0 Members:

 



- Lo-Fi Version Support form
Copyrights and abuse reports form
Time is now: 19th September 2020 - 02:53:29