Welcome Guest ( Log In | Register )

> Releases Upload / Добавление релизов

Добавить релиз тут / Click here to add release
Рекомендованные обменники / Recommended file shares

 
Reply to this topicStart new topic
> Devils Drunks - Desterrados (2020), Thrash/Death Metal
post Sep 14 2020, 09:18:56
Post #1

Правь статус, ####!111
**************
Group: Металариец
Posts: 23,457
Releases: 16401
From: Г.Харьков
On Forums: 8 years 5 months
Thanks: 308834 time(s)
Unknown


(IMG:http://metalarea.org/images/audiocovers/2020_Sep/acov_tid341602_thumb.jpg)

*Artist: Devils Drunks
*Album: Desterrados
*Year: 2020
*Genre: Thrash/Death Metal
*Country: Argentina (IMG:http://metalarea.org/forum/style_images/flags/Argentina.png)
*Format: mp3@CBR320kbps
*Size: 79MB

Tracklist:
1. Introduccion Al Destierro 01:08
2. Demencia Senil 05:41
3. Devil World 05:42
4. Solo Quiero Beber 05:12
5. Bajo Seis Pies 06:10
6. I Don't Sleep 03:54
7. Egos 06:32
******************************
Total playing time: 34:19




Extended info
Ariel Velocce Bass
Francisco Giraudi Drums
Luis Martinez Guitars
Esteban Marilungo Guitars
See also: ex-Hënkel
Luciano Ottogalli Vocals
Cristian Cervello Vocals


Technical info
(IMG:http://metalarea.org/images/spectrogram/2020_Sep/24d0fcf243eaa224586e523683588241.png)
Input File: DEVILS DRUNKS - DESTERRADOS - 03 DEVIL WORLD.mp3
Channels : 2
Sample Rate : 44100
Precision : 16-bit
Duration : 00:05:42.48 = 15103544 samples = 25686.3 CDDA sectors
File Size : 13.8M
Bit Rate : 323k
Sample Encoding: MPEG audio (layer I, II or III)
Comments :
Title=DEVIL WORLD
Artist=DEVILS DRUNKS
Album=DESTERRADOS
Tracknumber=3
Year=2020



Register


Go to the top of the page
  Insert nick Quick quote
+Quote Post

Reply to this topicStart new topic
2 User(s) are reading this topic (2 Guests and 0 Anonymous Users)
0 Members:

 



- Lo-Fi Version Support form
Copyrights and abuse reports form
Time is now: 21st October 2020 - 11:32:26