Welcome Guest ( Log In | Register )

> Releases Upload / Добавление релизов

Добавить релиз тут / Click here to add release
Рекомендованные обменники / Recommended file shares

 
Reply to this topicStart new topic
> Epine - Infernum Omnes (2020), Orchestral Black/Death Metal
post Sep 14 2020, 10:28:05
Post #1

Правь статус, ####!111
**************
Group: Металариец
Posts: 23,143
Releases: 16143
From: Г.Харьков
On Forums: 8 years 4 months
Thanks: 300347 time(s)
Unknown


(IMG:http://metalarea.org/images/audiocovers/2020_Sep/acov_tid341603_thumb.jpg)

*Artist: Epine
*Album: Infernum Omnes
*Year: 2020
*Genre: Orchestral Black/Death Metal
*Country: International (IMG:http://metalarea.org/forum/style_images/flags/International.png)
*Format: mp3@CBR320kbps
*Size: 70MB

Tracklist:
1. La Maison Charnelle 06:02
2. Déréliction 04:46
3. Le Calice Amer 04:37
4. Les Eaux Purpurines 04:24
5. En Ces Bras de Lin 04:42
6. Les Fausses Portes 05:42
******************************
Total playing time: 30:13




Extended info
France / Switzerland

Louis Viallet Orchestral parts
Haïtre Vocals (lead)
See also: Nansis, Distrip, ex-Destronork
Vomitor Priest Vocals (lead)
See also: Deadly Sin Orgy, Gronde, Nansis
Magnus Vocals (lead), Lyricist
See also: Calcined, Gronde, Nerumia, Serpens Luminis, Ancient Moon (live), Enoid (live), ex-Erzebeth Dane, ex-Ever Since, Hate Parade, Horg (Che), Neve, Soul of Sadness, ex-Anachronism, ex-Xaon, ex-Krigar


Technical info
(IMG:http://metalarea.org/images/spectrogram/2020_Sep/51cf7901c82986d09389837700a52117.png)
Input File: 06 - Les fausses portes.mp3
Channels : 2
Sample Rate : 44100
Precision : 16-bit
Duration : 00:05:42.15 = 15088683 samples = 25661 CDDA sectors
File Size : 13.8M
Bit Rate : 322k
Sample Encoding: MPEG audio (layer I, II or III)
Comments :
Title=Les fausses portes
Artist=Epine
Album=Infernum Omnes
Tracknumber=6
Year=2020-08-26
Genre=Metal
Discnumber=1



Register


Go to the top of the page
  Insert nick Quick quote
+Quote Post

Reply to this topicStart new topic
1 User(s) are reading this topic (1 Guests and 0 Anonymous Users)
0 Members:

 



- Lo-Fi Version Support form
Copyrights and abuse reports form
Time is now: 20th September 2020 - 01:34:43