Welcome Guest ( Log In | Register )

> Releases Upload / Добавление релизов

Добавить релиз тут / Click here to add release
Рекомендованные обменники / Recommended file shares

> Hilotz - Aske (2020), Thrash Metal
post Sep 14 2020, 13:05:34
Post #1

Правь статус, ####!111
**************
Group: Металариец
Posts: 23,564
Releases: 16492
From: Г.Харьков
On Forums: 8 years 5 months
Thanks: 311122 time(s)
Unknown


(IMG:http://metalarea.org/images/audiocovers/2020_Sep/acov_tid341606_thumb.jpg)

*Artist: Hilotz
*Album: Aske
*Year: 2020
*Genre: Thrash Metal
*Country: Spain (IMG:http://metalarea.org/forum/style_images/flags/Spain.png)
*Format: mp3@CBR320kbps
*Size: 133MB

Tracklist:
01. Aske 08:12
02. Pertsona, Terrorista 04:21
03. Sinisten Dut 06:27
04. Auhen 06:38
05. Hiltegira Bidean 05:43
06. Izua Su 04:35
07. Zurrunbiloa 06:11
08. Diktadore Zintzoa 04:24
09. Ezin Du 03:44
10. Betirako Atsedena 03:34
11. Agur 02:52
******************************
Total playing time: 56:41




Extended info
Etxahun Urkizu Drums
Mikel Yarza Vocals, Bass
Pablo Cabasés Guitars (2015-present)


Technical info
(IMG:http://metalarea.org/images/spectrogram/2020_Sep/fd97a93162dcc81aea4552fca5357395.png)
Input File: 04 - Auhen.mp3
Channels : 2
Sample Rate : 44100
Precision : 16-bit
Duration : 00:06:38.00 = 17551800 samples = 29850 CDDA sectors
File Size : 16.2M
Bit Rate : 326k
Sample Encoding: MPEG audio (layer I, II or III)
Comments :
Title=Auhen
Artist=Hilotz
Album=Aske
Tracknumber=4
Year=2020
Discnumber=1



Register


Go to the top of the page
  Insert nick Quick quote
+Quote Post
 
Start new topic
Replies (1 - 1)
post Sep 15 2020, 14:07:00
Post #2

Совки, гулаги, дефициты
***********
Group: Металариец
Posts: 1,705
Releases: 0
From: Беларусь, Минск
On Forums: 13 years 3 months
Thanks: 849 time(s)
Belarus


Вокал раздражает сильно.
Go to the top of the page
  Insert nick Quick quote
+Quote Post

Reply to this topicStart new topic
1 User(s) are reading this topic (1 Guests and 0 Anonymous Users)
0 Members:

 



- Lo-Fi Version Support form
Copyrights and abuse reports form
Time is now: 29th October 2020 - 17:37:27