Welcome Guest ( Log In | Register )

> Releases Upload / Добавление релизов

Добавить релиз тут / Click here to add release
Рекомендованные обменники / Recommended file shares

 
Reply to this topicStart new topic
> Ensepulchre - Desolation (2020), Black/Death Metal
post Sep 14 2020, 13:18:35
Post #1

Правь статус, ####!111
**************
Group: Металариец
Posts: 23,132
Releases: 16138
From: Г.Харьков
On Forums: 8 years 4 months
Thanks: 299979 time(s)
Unknown


(IMG:http://metalarea.org/images/audiocovers/2020_Sep/acov_tid341608_thumb.jpg)

*Artist: Ensepulchre
*Album: Desolation
*Year: 2020
*Genre: Black/Death Metal
*Country: United States (IMG:http://metalarea.org/forum/style_images/flags/United%20States.png)
*Format: mp3@CBR320kbps
*Size: 99MB

Tracklist:
1. Prolegomenon 00:50
2. The Mountain 04:37
3. Anthropogenesis 05:03
4. Transcend 05:16
5. Thy Shepherd 03:45
6. The Shape of Fear 05:32
7. Quietus 00:32
8. Anthropophagy 05:13
9. Desolation Pt I: O Son of Man 06:32
10. Desolation Pt II: From the Midst of the Stones of Fire 05:00
******************************
Total playing time: 42:20




Extended info
Phil Wood Everything
See also: Charnal, Tel Anorath


Technical info
(IMG:http://metalarea.org/images/spectrogram/2020_Sep/891d1a086497fcefa4f8aede2a2f3c79.png)
Input File: 04 - Transcend.mp3
Channels : 2
Sample Rate : 44100
Precision : 16-bit
Duration : 00:05:16.44 = 13954916 samples = 23732.9 CDDA sectors
File Size : 12.9M
Bit Rate : 327k
Sample Encoding: MPEG audio (layer I, II or III)
Comments :
Title=Transcend
Artist=Ensepulchre
Album=Desolation
Tracknumber=4
Year=2020



Register


Go to the top of the page
  Insert nick Quick quote
+Quote Post

Reply to this topicStart new topic
2 User(s) are reading this topic (2 Guests and 0 Anonymous Users)
0 Members:

 



- Lo-Fi Version Support form
Copyrights and abuse reports form
Time is now: 19th September 2020 - 03:39:19