Welcome Guest ( Log In | Register )

> Releases Upload / Добавление релизов

Добавить релиз тут / Click here to add release
Рекомендованные обменники / Recommended file shares

> Brick - Done Counting My Scars (2020), Heavy Metal
post Sep 14 2020, 13:33:16
Post #1

Правь статус, ####!111
**************
Group: Металариец
Posts: 23,450
Releases: 16401
From: Г.Харьков
On Forums: 8 years 5 months
Thanks: 308716 time(s)
Unknown


(IMG:http://metalarea.org/images/audiocovers/2020_Sep/acov_tid341610_thumb.jpg)

*Artist: Brick
*Album: Done Counting My Scars
*Year: 2020
*Genre: Heavy Metal
*Country: Sweden (IMG:http://metalarea.org/forum/style_images/flags/Sweden.png)
*Format: mp3@CBR320kbps
*Size: 109MB

Tracklist:
1. Done Counting My Scars 05:17
2. Americas First 04:31
3. Beloved Congregation 04:49
4. Lifes Like 05:20
5. One Less Day 04:59
6. Shy of Seventeen 04:16
7. I Am War 04:44
8. No.1 Fan 05:38
9. Taking Turns 04:29
10. Turn to Gray 03:11
******************************
Total playing time: 47:14



Extended info
Erik "Gora" Göransson Bass
See also: ex-Black Barrel Smoke
Dado Hrnic Drums
See also: ex-Devastated
Matte Lilja Guitars
Gustav "Gurra" Widerquist Keyboards
Johan Hultgren Vocals
Fredrik Finnander Guitars (2017-present)
See also: ex-Aeon, ex-Kayser, ex-Rise and Shine, ex-Jack of All Trades, ex-All the Way


Technical info
(IMG:http://metalarea.org/images/spectrogram/2020_Sep/b6ab39f81256c6aeccd7d3f390d16926.png)
Input File: 05 - One Less Day.mp3
Channels : 2
Sample Rate : 44100
Precision : 16-bit
Duration : 00:04:59.67 = 13215315 samples = 22475 CDDA sectors
File Size : 12.1M
Bit Rate : 324k
Sample Encoding: MPEG audio (layer I, II or III)
Comments :
Title=One Less Day
Artist=Brick
Album=Done Counting My Scars
Tracknumber=5
Year=2020



Register


Go to the top of the page
  Insert nick Quick quote
+Quote Post
 
Start new topic
Replies (1 - 1)
post Sep 15 2020, 18:20:02
Post #2

Маньяк
**********
Group: Металариец
Posts: 1,498
Releases: 251
On Forums: 11 years 11 months
Thanks: 5212 time(s)
Russian Federation


FLAC tracks
Register


Thanks:
(1) Olethros,
Go to the top of the page
  Insert nick Quick quote
+Quote Post

Reply to this topicStart new topic
1 User(s) are reading this topic (1 Guests and 0 Anonymous Users)
0 Members:

 



- Lo-Fi Version Support form
Copyrights and abuse reports form
Time is now: 20th October 2020 - 17:54:07