Welcome Guest ( Log In | Register )

> Releases Upload / Добавление релизов

Добавить релиз тут / Click here to add release
Рекомендованные обменники / Recommended file shares

 
Reply to this topicStart new topic
> Hilotz - Hil Ala Bizi [ep] (2012), Thrash Metal
post Sep 14 2020, 14:13:02
Post #1

Правь статус, ####!111
**************
Group: Металариец
Posts: 23,132
Releases: 16138
From: Г.Харьков
On Forums: 8 years 4 months
Thanks: 299980 time(s)
Unknown


(IMG:http://metalarea.org/images/audiocovers/2020_Sep/acov_tid341612_thumb.jpg)

*Artist: Hilotz
*Album: Hil Ala Bizi [ep]
*Year: 2012
*Genre: Thrash Metal
*Country: Spain (IMG:http://metalarea.org/forum/style_images/flags/Spain.png)
*Format: mp3@CBR320kbps
*Size: 52MB

Tracklist:
1. Hil ala bizi 01:08 instrumental
2. Ezin atzera bueltatu 03:46
3. Amesgaiztoa 04:34
4. Hilzori amaigabea 03:49
5. Errealitate ustela 04:09
6. Hil eta gero 05:36
******************************
Total playing time: 23:02




Extended info
Paulo Eizmendi Guitars
Aitor Zarzuelo Guitars
Mikel Yarza Vocals, Bass
Iker Eleicegui Drums


Technical info
(IMG:http://metalarea.org/images/spectrogram/2020_Sep/67c1300059c67b8e59e66bec9b72776d.png)
Input File: 05 - Errealitate Ustela.mp3
Channels : 2
Sample Rate : 44100
Precision : 16-bit
Duration : 00:04:08.21 = 10945885 samples = 18615.5 CDDA sectors
File Size : 9.95M
Bit Rate : 321k
Sample Encoding: MPEG audio (layer I, II or III)
Comments :
Title=Errealitate Ustela
Artist=Hilotz
Album=Hil Ala Bizi
Tracknumber=5
Year=2012-06-09
Genre=Metal
Discnumber=1



Register


Go to the top of the page
  Insert nick Quick quote
+Quote Post

Reply to this topicStart new topic
1 User(s) are reading this topic (1 Guests and 0 Anonymous Users)
0 Members:

 



- Lo-Fi Version Support form
Copyrights and abuse reports form
Time is now: 19th September 2020 - 04:26:26