Welcome Guest ( Log In | Register )

> Releases Upload / Добавление релизов

Добавить релиз тут / Click here to add release
Рекомендованные обменники / Recommended file shares

 
Reply to this topicStart new topic
> Agonizer - Mental Constrictor [demo] (1993), Death Metal (D)
post Sep 14 2020, 14:43:48
Post #1

Подвал
**************
Group: Металариец
Posts: 15,129
Releases: 8577
From: Far East (Khabarovsk)
On Forums: 11 years 7 months
Thanks: 90347 time(s)
Russian Federation


(IMG:http://metalarea.org/images/audiocovers/2020_Sep/acov_tid341615_thumb.jpg)

*Artist: Agonizer
*Album: Mental Constrictor [demo]
*Year: 1993
*Genre: Death Metal
*Country: Italy (IMG:http://metalarea.org/forum/style_images/flags/Italy.png)
*Format: mp3@CBR320kbps
*Size: 70MB

Tracklist:
1. Agony / Obliteration 07:44
2. Joseph 06:40
3. Mental Constrictor 05:29
4. Gates Of Destruction 05:05
5. Society Of Darkness 05:00
6. Rebirth In Wilderness (Bonus Track) 04:31
******************************
Total playing time: 34:29

(IMG:http://metalarea.org/images/youtube.png)

Extended info
Recorded and mixed at HM Studios, Vigevano, Italy during May-June 1993.


Technical info
(IMG:http://metalarea.org/images/spectrogram/2020_Sep/64ceb0c6fc82c66c561453a0600a6cef.png)
Input File: 02-Joseph.mp3
Channels : 2
Sample Rate : 44100
Precision : 16-bit
Duration : 00:06:40.59 = 17666019 samples = 30044.2 CDDA sectors
File Size : 16.0M
Bit Rate : 320k
Sample Encoding: MPEG audio (layer I, II or III)
Comments :
Title=Joseph
Artist=Agonizer (Ita)
Album=Mental Constrictor (Demo)
Tracknumber=02
Year=1993
Genre=Death Metal



Register


Go to the top of the page
  Insert nick Quick quote
+Quote Post

Reply to this topicStart new topic
2 User(s) are reading this topic (2 Guests and 0 Anonymous Users)
0 Members:

 



- Lo-Fi Version Support form
Copyrights and abuse reports form
Time is now: 19th September 2020 - 04:51:23