Welcome Guest ( Log In | Register )

> Releases Upload / Добавление релизов

Добавить релиз тут / Click here to add release
Рекомендованные обменники / Recommended file shares

 
Reply to this topicStart new topic
> Thoracotomy - Unimaginable Suffering [ep] (2020), Death Metal
post Sep 14 2020, 14:49:49
Post #1

MDM-Thrash Metal
**************
Group: Металариец
Posts: 9,921
Releases: 1081
From: Одесса
On Forums: 13 years 2 months
Thanks: 26846 time(s)
Ukraine


(IMG:http://metalarea.org/images/audiocovers/2020_Sep/acov_tid341616_thumb.jpg)

*Artist: Thoracotomy
*Album: Unimaginable Suffering [ep]
*Year: 2020
*Genre: Death Metal
*Country: United States (IMG:http://metalarea.org/forum/style_images/flags/United%20States.png)
*Format: mp3@CBR320kbps
*Size: 23MB

Tracklist:
1. Primitive Rot
2. Primordial Cautery
3. Interlude
4. Mortuary Wax
******************************
Total playing time: 8:44


(IMG:http://metalarea.org/images/youtube.png)

Technical info
(IMG:http://metalarea.org/images/spectrogram/2020_Sep/7efef198bed253204113d1b7a8ee2b1a.png)
Input File: Thoracotomy - Unimaginable Suffering - 02 Primordial Cautery.mp3
Channels : 2
Sample Rate : 44100
Precision : 16-bit
Duration : 00:02:11.25 = 5787949 samples = 9843.45 CDDA sectors
File Size : 5.44M
Bit Rate : 332k
Sample Encoding: MPEG audio (layer I, II or III)
Comments :
Title=Primordial Cautery
Artist=Thoracotomy
Album=Unimaginable Suffering
Tracknumber=2
Year=2020



Register


Go to the top of the page
  Insert nick Quick quote
+Quote Post

Reply to this topicStart new topic
2 User(s) are reading this topic (2 Guests and 0 Anonymous Users)
0 Members:

 



- Lo-Fi Version Support form
Copyrights and abuse reports form
Time is now: 31st October 2020 - 02:38:40