Welcome Guest ( Log In | Register )

> Releases Upload / Добавление релизов

Добавить релиз тут / Click here to add release
Рекомендованные обменники / Recommended file shares

 
Reply to this topicStart new topic
> Destrowar - Angelcunt Destruction [demo] (2020), Black/Death Metal
post Sep 14 2020, 14:59:07
Post #1

MDM-Thrash Metal
**************
Group: Металариец
Posts: 9,879
Releases: 1070
From: Одесса
On Forums: 13 years 2 months
Thanks: 26652 time(s)
Ukraine


(IMG:http://metalarea.org/images/audiocovers/2020_Sep/acov_tid341617_thumb.jpg)

*Artist: Destrowar
*Album: Angelcunt Destruction [demo]
*Year: 2020
*Genre: Black/Death Metal
*Country: Turkey (IMG:http://metalarea.org/forum/style_images/flags/Turkey.png)
*Format: mp3@CBR320kbps
*Size: 27MB

Tracklist:
1. Satanic War Breath 00:35
2. Burn the Holy Lies 02:15
3. Nunslaying Nuclear Explosion 03:28
4. Angelcunt Destruction 02:29
5. Bestial Damnation 03:05
******************************
Total playing time: 11:52


(IMG:http://metalarea.org/images/youtube.png)

Extended info
Apocalyptor Bass (2020-present)
Nunkiller Guitars (2020-present)
Smertenium Vocals, Drum Programming (2020-present)
See also: Cruentus Deus, Smertenium, ex-Kriegoat


Technical info
(IMG:http://metalarea.org/images/spectrogram/2020_Sep/96f8203367fbc1f6446380fe560458ab.png)
Input File: Destrowar - Angelcunt Destruction - 02 Burn the Holy Lies.mp3
Channels : 2
Sample Rate : 44100
Precision : 16-bit
Duration : 00:02:15.82 = 5989574 samples = 10186.4 CDDA sectors
File Size : 5.52M
Bit Rate : 325k
Sample Encoding: MPEG audio (layer I, II or III)
Comments :
Title=Burn the Holy Lies
Artist=Destrowar
Album=Angelcunt Destruction
Tracknumber=2
Year=2020



Register


Go to the top of the page
  Insert nick Quick quote
+Quote Post

Reply to this topicStart new topic
1 User(s) are reading this topic (1 Guests and 0 Anonymous Users)
0 Members:

 



- Lo-Fi Version Support form
Copyrights and abuse reports form
Time is now: 21st October 2020 - 11:06:08